&title=[回] 回る空うさぎ
&artist=Orangestar
&first=-0.05
&des=-
&lv_7=11?
&inote_7=(120)
{8},,,{8}1bx>1[1:2],,,,,,,,,,,,,,,,1?>1[1:2],,,,,,,,,,,,,,,,C`1?>1[1:2],,,,,,,,C,,,,,,,,1?>1[1:2]`C,,,,,,,,C,,,,,,,,1?>1[1:2]`B5,,,,B7,,,,B1,,,,B3,,,,1?>1[1:2]`B5,,,,B7,,,,B1,,,,B3,,,,1?>1[1:2]`B5,,B6,,B7,,,,B1,,B2,,B3,,,,1?>1[1:2]`B5,,B6,,B7,,,,B1,,B2,,B3,,,,1?>1[1:2]`E5,,,,E7,,,,E1,,,,E3,,,,1?>1[1:2]`E5,,,,E7,,,,E1,,,,E3f,,,,1?>1[1:2]`B5,,B6,,B7,,B8,,B1,,B2,,B3,,B4,,1?>1[1:2]`B5,,B6,,B7,,B8,,B1,,B2,,B3,,B4,,1?>1[1:2]`B5,,B6,,B7,,B8,,B1,,B2,,B3,,B4,,1?>1[1:2]`B5,,B6,,B7,,B8,,B1,,B2,,B3,,,,1?>1[1:2]`E5,,,,E3,,,,E1,,,,E7,,,,1?>1[1:2]`E5,,,,E3,,,,E1,,,,E7,,,,1?>1[1:2]`B4,,B3,,B2,,,,B8,,B7,,B6,,,,1?>1[1:2]`B4,,B3,,B2,,,,B8,,B7,,B6,,,,1?>1[1:2]`A4,,B3,,B2,,A1,,A8,,B7,,B6,,A5,,1?>1[1:2]`A4,,B3,,B2,,A1,,A8,,B7,,B6,,A5,,1?>1[1:2]`A4,,B3,,B2,,A1,,A8,,B7,,B6,,A5,,1?>1[1:2]`A4,,B3,,B2,,A1,,A8,,B7,,B6,,A5,,1?>1[1:2]`A4,B4,E4,B3,B2,E2,B1,A1,A8,B8,E8,B7,B6,E6,B5,A5,1?>1[1:2]`A4,B4,E4,B3,B2,E2,B1,A1,A8,B8,E8,B7,B6,E6,B5,A5,1?>1[1:2]`A4,B4,E4,B3,B2,E2,B1,A1,A8,B8,E8,B7,B6,E6,B5,A5,1?>1[1:2]`A4,B4,E4,B3,B2,E2,B1,A1,A8,B8,E8,B7,B6,E6,B5,,1?>1[1:2]`E4,,E3,,B2,,E1,,E8,,E7,,E6,,E5,,1?>1[1:2]`E4,,E3,,E2,,E1,,E8,,E7,,E6,,,,1?>1[1:2]`E6,B6,B7,E8,,,,,E4,B3,B2,E2,,,,,1?>1[1:2]`E6,B6,B7,E8,,,,,E4,B3,B2,E2,,,,,1?>1[1:2]`E5,,E4,,E3,,E2,,E1,,E8,,E7,,E6,,1?>1[1:2]`E5,,,,E3,,,,A1,,,,A1,,,,
