&title=Shooting Shower~DANCE TIME(シンディ)
&artist=Sammy Sound Team
&first=0
&des_4=はっぴー
&des_5=DANCE TIME(サファ太)
&lv_2=4
&lv_3=6
&lv_4=9
&lv_5=13
&inote_2=
(149){1},
{1}1x-4[4:3],
{1},
{1}5-8[4:3],
{1},
{1}1-4[4:3],
{1},
{1}5-8[4:3],
{1},
{4}1bx,1,1,,
{2}2,2,
{4}3,3,3,,
{1}3/4,
{4}5bx,5,5,,
{2}6,6,
{4}7,7,7,,
{1}7/8,
{4}8b,8,8,,
{4}7,7,7,,
{4}6b,6,6,,
{2}4x/5x,4x/5x,
{4}4b,4,4,,
{4}3,3,3,,
{4}2b,2,2,,
{1}1x/8x,
{1}B8,
{1}B1,
{1}B7,
{1}B2,
{1}B6,
{1}B3,
{1}B5,
{1}C1f,
{1}1xh[2:1]/2xh[2:1],
{2}1/2,2,
{1}3h[2:1]/4h[2:1],
{1}3/4,
{1}5h[2:1]/6h[2:1],
{2}5/6,6,
{1}7h[2:1]/8h[2:1],
{1}7/8,
{1}1h[2:1]/8h[2:1],
{1}1x/8x,
{4}8b,8,8,,
{4}7,7,7/8,,
{4}6b,6,6,,
{4}5,5,4/5,,
{4}4b,4,4,,
{4}3,3,3/4,,
{4}2,2,2,,
{4}1,1,1x/8x,,
{4}1b,1,1,1,
{4}2,2,1/2,,
{4}3b,3,3,3,
{4}4,4,4/5,,
{4}5b,5,5,5,
{4}6,6,5/6,,
{4}7,7,7,7,
{4}1/8,1/8,1/8,,
{1}2b/7b,
{1},
{1},
{1},
E
&inote_3=
(149){1},
{4}2,2,1/2,,
{4}3,3,3/4,,
{4}5,5,4/5,,
{4}5/6,5/6,5/6,,
{4}7,7,7/8,,
{4}6,6,5/6,,
{4}4,4,4/5,,
{4}3/4,3/4,3/4,,
{4}2,2,3,3,
{4}4,4,5/6,,
{4}7,7,6,6,
{4}5,5,3/4,,
{4}2,2,3,3,
{4}4,4,5/6,,
{1}7-4[2:1],
{4}3,3,4b/5b,,
{4}6,6,7,7,
{4}8,8,1/2,,
{4}3,3,2,2,
{4}1,1,7/8,,
{4}6,6,7,7,
{4}8,8,1/2,,
{1}2-5[2:1],
{4}6,6,7b/8b,,
{2}7h[2:1],6h[2:1],
{2}5h[2:1],4,
{2}2h[2:1],3h[2:1],
{2}4h[2:1],5,
{2}6h[2:1],7h[2:1],
{2}8h[2:1],1,
{4}1/2,1/2,1/2,,
{4}1/8,1/8,2x/7x,,
{4}B2,B3,B4,,
{4}B7,B6,B5,,
{4}B1,B2,B3/B4,,
{4}B8,B7,B5/B6,,
{4}B2,B3,B4,B5,
{4}B6,B7,C1,,
{8}1h[2:1]/8h[2:1],,,,,,,2xh[8:5]/8xh[8:5],
{1},
{8}1h[2:1]/8h[2:1],,,,,,,1xh[8:5]/7xh[8:5],
{1},
{4}7,7,5/6,5/6,
{4}4,3,1/2,,
{4}2,2,3/4,3/4,
{4}5,6,7/8,,
{4}7,7,5/6,5/6,
{4}4,3,1/2,,
{1}2-5[2:1],
{4}6,6,4b/5b,,
{4}3,3,1/2,1/2,
{4}8,7,5/6,,
{4}6,6,7/8,7/8,
{4}1,2,3/4,,
{4}3,3,1/2,1/2,
{4}8,7,5/6,,
{1}7-4[2:1],
{4}3,3,1x/2x,1x/2x,
{1}1bx/8bx,
{1},
{1},
{1},
E
&inote_4=
(149){1},
{4}6h[1:1],5,5,4,
{4}3h[1:1],4,4,5,
{4}6h[1:1],5,5,4,
{4}3h[2:1],4,4,2/5,
{4}6-1[4:1],,2,2,
{4}3-8[4:1],,7,7,
{4}6-1[4:1],,2,2,
{4}3bh[2:1],,4,2b/5b,
{4}7/8,5,1/2,4,
{4}6h[4:1],5,2h[4:1],1,
{4}1/2,4,7/8,5,
{4}3h[4:1],4,5/6,1b/8b,
{4}1/2,4,7/8,5,
{4}3h[4:1],4,7h[4:1],8,
{4}7/8,5,1/2,4,
{4}6h[4:1],5,3/4,2b/5b,
{4}7h[4:1]/8,4,1/2h[4:1],5,
{8}7/8,,6,6,5,,3/4,,
{4}1/2h[4:1],5,7h[4:1]/8,4,
{8}1/2,,3,3,4,,1b/8b,,
{4}1/2h[4:1],5,7h[4:1]/8,4,
{8}1/2,,3,3,4,,5/6,,
{4}7h[4:1],5h[4:1],4h[4:1],2h[4:1],
{4}8,2/8,4/6,3b/7b,
{8}2h[4:1],,1,1,,2/4,,5/7h[4:1],
{8},8,8,,6/5-1[4:1],,,,
{8}7h[4:1],,8,8,,5/6,,2h[4:1]/4,
{8},1,1,,3/4-8[4:1],,,,
{8}2h[4:1],,1,1,,2/4,,5/7h[4:1],
{8},8,8,,6/5-1[4:1],,,,
{4}8,6/7,4/5,2/3,
{4}1>4[4:1]/8<5[4:1],,,1b/8b,
{4}1-5b[8:1],8-6[8:1],2-4[8:1],,
{4},B5f,B6,B4,
{4}8-4b[8:1],1-3[8:1],7-5[8:1],,
{4},B4f,B3,B5,
{4}1-3b[8:1],7-5[8:1],8-4[8:1],,
{4},B3f,B5,B4,
{4}8-6b[8:1],2-4[8:1],1-5[8:1],,
{4},B6f,B4,B5,
{8}1xh[4:1]/8xh[4:1],,,,2/7,,3/6,3V58[8:3]/6V41[8:3],
{4},,,1b/8b,
{8}3/5,,7,7,1,,2>5[4:1]/6<1[4:1],,
{4},,1/8h[4:1],5,
{8}5,,4/6,,2,2,8,,
{4}3h[4:1],1h[4:1],8h[4:1],6bh[4:1],
{8}4,,2,2,8,,3>8[4:1]/7<4[4:1],,
{4},,1h[4:1]/8,4,
{2}5-1[4:1],2-6[4:1],
{4}7h[4:1],5,2/4,1b/8b,
{8}4/6,,2,2,8,,3>8[4:1]/7<4[4:1],,
{4},,1h[4:1]/8,4,
{8}4,,3/5,,7,7,1,,
{4}6h[4:1],8h[4:1],1h[4:1],3bh[4:1],
{8}5,,7,7,1,,2>5[4:1]/6<1[4:1],,
{4},,1/8h[4:1],5,
{2}4-8[4:1],7-3[4:1],
{4}2h[4:1],4,5/7,1/8,
{1}2b/7b,
{1},
{1},
{1},
E
&inote_5=(149){1},
{16}4/7,,,4,7,,4h[16:6],,7,,,,7,,,,
5/7,,,5,7,,5h[16:6],,7,,,,7,,,,
4/7,,,4,7,,4h[16:6],,7,,,,7,,,,
3/7,,,3,7,,3h[16:6],,7,,,,7,,,,
4/6,,,4,6,,4-2[16:2],,6,,,,6,,,,
3/5,,,5,3,,5-7[16:2],,3,,,,3,,,,
8,,1,,2/7,,2/7,,
{12}
3,4,2,6,5,7,1hb[16:8],,,,,,
{16}
6v1b[16:2],,,,5b,,,,
2-4[16:2],,2,,8,,7,,6/5,,6,5,,2,1,,8/3h[16:4],,7,,6h[16:4],,4,,5h[16:4],,7,,8,,8,,
7-3[16:2]/3,,7,,1,,1,,2/4,,3,4,,6,5,,4/7,,3>8[16:2],,8<5[16:2],,6,,4-8b[16:2],,,,3x,,,,
2-5[16:2],,2,,6,,7,,8/7,,2,1,,3,4,,2h[16:4]/4,,5,,6h[16:4],,3,,2h[16:4],,4,,5<1[16:4],,,,1>5[16:4],,,,5,,,,1,,,,2-6[16:2]/6,,,,8h[16:4]/2,,,,5,,5,,4v7[16:2]*v1[16:2],,3/5,,,,,,
2b/6b,,,,2/6,,1,,1/7,,6,5,,3,4,,2/5h[16:4],,3,,2h[16:4],,4,,5h[16:4],,3,,1,,1,,2-6[16:2]/5,,2,,8,,8,,7/4,,6,5,,3,4,,2/5,,6<1[16:2],,1>4[16:2],,3,,5-1b[16:2],,,,6x,,,,7-4[16:2],,7,,3,,2,,1/8,,6,5,,3,4,,2/5,,2/5,,3/6,,4/7,,5-1[16:2]/8,,7,,6,,,,2-6[16:2]/8-6[16:2],,,,2/8-4[16:2],,,,4/8,,,,2-7[16:2]/6-3[16:2],,,,2b/6b,,,,8/4,,1/5,,2/6v1b[16:2],,,,5b,,,,
3hb[16:14],,,,1,,8-5[16:2],,,,8,,,,6h[16:8],,,,4b,,5V71[16:4],,3,,,,,,2hx[16:14],,,,1x,,,,1,,8-5[16:2],,,,8,,,,6h[16:8],,,,4,,5-1[16:2],,3,,,,,,1bx/2bx,,,,3h[16:14],,,,2,,8-5[16:2],,,,8,,,,6h[16:8],,,,4b,,5<1[16:4],,3,,,,,,2h[16:4],,,,1-3[16:2],,,,1/7h[16:4],,,,8-6[16:2],,,,1/8,,,,5h[16:4]/2x-5V31[16:4],,,,,,,,,,,,2bx/7bx,,
8,1,8-6-1[16:4],,,,5,,5>2[16:2],,,,8-5[16:2],,,,8/1h[16:14],,,,5x,,5x,,4,,3,,2,,8,,7,7,1-3-8[16:4],,,,4,,4-7[16:2],,,,1-4[16:2],,,,1/6h[16:14],,,,4x,,4x,,5,,5,,4,,3/5,,2,4,2-6[16:2],,,,2/5<8[16:2],,,,3/5,,,,2,,1/3,,8/4V28[16:4],,,,6,,6-4[16:2],,,,6x,,,,2,,2-4[16:2]/4-1[16:2],,,,2/4,,,,5/8<5[16:2],,,,4,,3h[16:14],,,,4,,4,,,,5-8[16:2],,,,5,,,,3-1[16:2]/1-4[16:2],,,,3/1,,,,8/5<8[16:2],,,,E1,,Ch[16:10],,,,,,,,,,8w4b[16:2],,,,C,,,,
2bx/6bx,,,,2/6,,1,,2/5,,3,4,,6,5,,7-1[16:2],,7,,5-3[16:2],,5,,6,,6,,1/7,,8,,2>4[16:2],,2,,8,,7,,5/6,,6,5,,2,4,,1-5[16:2],,6<1[16:2],,1>4[16:2],,6,,5bxw1b[16:2],,,,5b,,,,3b/7b,,,,3/5,,2,,2/6,,3,4,,6,5,,7-1[16:2]/4,,7,,5-3[16:2],,5,,6-2b[16:2],,6,,4>6[16:4],,,,8<4[16:4],,,,4,,,,8,,,,2h[16:4]/6v1[16:2],,,,6,,,,8/4,,3/7,,2-5[16:2]/6-1[16:2],,1/5,,2b/6b,,,,
3bx/7bx<4[16:2],,,,2,,2,,1/2,,3,4,,6,5,,7-2[16:2],,7,,6-3[16:2],,6,,7,,7,,1/7,,8,,2-5[16:2],,2,,8,,8,,7/4,,6,5,,3,4,,1-5[16:2],,6<1[16:2],,1>4[16:2],,6,,5bxw1b[16:2],,,,5b,,,,
7-3[16:2],,7,,3,,2,,1/2,,3,4,,6,5,,7-2[16:2],,7,,6-3[16:2],,6,,8-5[16:2],,8,,2,,2,,1-3[16:2]/4-8[16:2],,,,4/1-5[16:2],,,,1/7,,,,2-7[16:2]/6-3[16:2],,,,2b/6b,,,,8/4,,1/5,,6v1b[16:2]/2>5b[16:2],,,,2b/6b,,,,A2/D2/A1/D1/A8/D8/A7/B7/C/B3/A3/D4/A4/A5/D5/A6/D6,,
