&title=魂のルフラン
&artist=高橋洋子 [covered by 光吉猛修]
&first=0
&des_4=翠楼屋
&des_5=はっぴー
&lv_2=2
&lv_3=6
&lv_4=9+
&lv_5=12+
&inote_2=
(130){1},
{1},
{1},
{1}2h[2:3],
{1},
{1},
{1}1h[2:3],
{1},
{1},
{1}8h[2:3],
{1},
{1},
{1}7h[2:3],
{1},
{1},
{1}8-5[4:5],
{1},
{1},
{1}4-1[4:5],
{1},
{1},
{1}1x/8x,
{2}1x,1,
{1}2,
{2}3,3,
{1}4,
{2}5,5,
{1}6,
{2}7,7,
{1}1/8,
{2}8,8,
{2}7,7,
{2}6,6,
{1}4x/5x,
{2}4,4,
{2}3,3,
{2}2,2,
{1}1x/2x,
{1}B1/B2,
{1}B3/B4,
{1}B5/B6,
{1}B7/B8,
{1}B5/B6,
{1}B3/B4,
{1}C1h[1:1],
{1},
{4}7bx,7,7,,
{2}7/8,7/8,
{4}6,6,6,,
{1}5/6,
{4}3,3,3,,
{2}3/4,3/4,
{4}2,2,2,,
{1}1x/2x,
{4}1,1,1,,
{2}2,2,
{4}3,3,3,,
{2}4/5,4/5,
{4}5,5,5,,
{2}6,6,
{4}7,7,7,,
{1}1b/8b,
{1}B1/B8,
{1}B2/B7,
{1}B3/B6,
{1}C1fh[8:7]/B4/B5,
{1},
{1},
{1},
E
&inote_3=
(130){1},
{1},
{1},
{4}7h[4:3],,,6h[4:3],
{2},5h[4:3],
{4},4,,,
{4}2h[4:3],,,3h[4:3],
{2},4h[4:3],
{4},5,,,
{4}6h[4:3],,,5,
{2},3h[4:3],
{4},4,,,
{1}1h[4:3]/2h[4:3],
{2},7h[4:3]/8h[4:3],
{1},
{1}7-4[2:1],
{2},2-5[2:1],
{1},
{1}7-3[2:1],
{2},2-6[2:1],
{1},
{4}7,7,1b/8b,,
{4}2,2,1/2,,
{4}3,3,3/4,,
{4}5,5,5/6,,
{4}7/8,7/8,7/8,,
{4}7,7,7/8,,
{4}6,6,5/6,,
{4}4,4,3/4,,
{4}1/2,1/2,1/2,,
{4}2,2,3,3,
{4}4,4,5h[2:1]/6h[2:1],,
{8},,,,,,,5bx/6bx,
{1},
{4}7,7,6,6,
{4}5,5,3h[2:1]/4h[2:1],,
{8},,,,,,,3bx/4bx,
{1},
{4}B2,B3,B4,,
{4}B7,B6,B5,,
{4}B1,B2,B3/B4,,
{4}B8,B7,B5/B6,,
{4}B3,B2,B1,B8,
{4}B7,B6,B4/B5,,
{1}C1fh[1:1],
{1},
{4}2,2,3/4,3/4,
{4}5,5,5/6,,
{4}7,7,5/6,5/6,
{4}4,4,3/4,,
{4}2,2,1/2,1/2,
{4}3,3,3/4,3/4,
{4}5,5,5/6,5/6,
{4}7/8,7/8,7x/8x,,
{4}6,6,7/8,7/8,
{4}1,1,1/2,,
{4}3,3,1/2,1/2,
{4}8,8,7/8,,
{4}7,7,7/8,7/8,
{4}6,6,5/6,5/6,
{4}4,4,3/4,3/4,
{1}1b/2b,
{4}1,2,3,4,
{4}5,6,7/8,,
{4}7,6,5,4,
{4}3,2,1b/8b,,
{1},
{1},
{1},
E
&inote_4=
(130){1},
{1},
{1},
{1}3<6[1:1],
{2},7>2[1:1],
{1},
{1}3<6[1:1],
{2},7>2[1:1],
{1},
{4}3h[4:3],,,4h[4:3],
{2},5h[4:3],
{4},6h[4:3],,,
{4}7h[4:3],,,8h[4:9],
{2},1h[4:3],
{1},
{1}2bx>5[4:3],
{4},6,6<1[4:3],,
{4},,,2,
{1}2-6[4:3],
{4},8,8h[4:9],,
{1},
{4},1bxh[2:1],,,
{1}7b/2b>7b[2:1],
{4}8,8,1/7,2/6,
{8}2/5,,3,3,4,,5/4-8[4:1],,
{4},,1x/7x,1x/7x,
{8}2bx/6bx,,3,3,4,,5/6,,
{4}7/8,1/2,3/4,5/6,
{8}5/6,,7,7,8,,1/6,,
{4}3/4,4/5,2bx/7bx,,
{2}2-5[4:1],6-1[4:1],
{4}2-5[4:1],,6,7,
{8}7/8,,7/8,,1,1,,2b/8b,
{8},3/7,3/7,,6h[4:1],,4,,
{2}3-8[4:1],7-4[4:1],
{4}3-8[4:1],,7,6,
{8}5/6,,5/6,,4,4,,3b/5b,
{8},2/6,6/2-6[4:1],,,,,,
{8}7h[4:1],,5,5,6,,4/5,,
{8}2h[4:1],,4,4,3,,2/5,,
{8}3/4,,4/5,,5/6,,7,7,
{8}8,,2,2,1,,3/8,,
{8}7h[4:1],,8,8,6,,1/7,,
{8}2h[4:1],,1,1,3,,2/8,,
{4}1/7,2/6,3/5,4/6,
{8}4h[4:1]/5h[4:1],,,3x/6x,3x/6x-3[8:1],,,,
{2}1-5[8:1]/2-5[8:1],7-4[8:1]/8-4[8:1],
{2}1-5[8:1]/2-5[8:1],7-4[8:1]/8-4[8:1],
{2}1-6[8:1]/2-6[8:1],7-3[8:1]/8-3[8:1],
{4}1-6[8:1]/2-6[8:1],,7x/8x,7x/8x,
{16}7h[16:3],,,6h[16:3],,,5,,2h[16:3],,,3h[16:3],,,4,,
{16}4,,,,3/5,,,,6h[16:3],,,7h[16:3],,,8,,
{1}8>5[2:1],
{8}5x/6x,,5/6,4/7,8/3x-6[8:1],,,,
{2}7-4[8:1]/8-3[8:1],1-6[8:1]/2-5[8:1],
{2}7-4[8:1]/8-3[8:1],1-6[8:1]/2-5[8:1],
{2}7-3[8:1]/8-4[8:1],1-5[8:1]/2-6[8:1],
{4}7<4[8:1]/8>3[8:1],,2x/5x,2x/5x,
{16}3h[16:3],,,2h[16:3],,,1,,6h[16:3],,,7h[16:3],,,8,,
{8}8b,,1/7,1/7,1h[16:3]/7h[16:3],,,2/6,
{8}2>5[4:1]/6<1[4:1],,,,,,,2bx/8bx,
{1}2bxh[4:3]/8bxh[4:3],
{1}3bqq8b[1:1]/7bqq4b[1:1],
{1},
{4}E8,E7,E5/E6,E3/E4,
{16}2h[4:1]/6h[4:1],,,,,,,,3b/4b,,,5b/6b,,,2b/8b,,
{1},
{1},
{1},
E
&inote_5=(130){1},
{1},
{1},
{4}5<8[2:1],4,3,2>5[2:1],1,8,
7>2[2:1],6,5,4<7[2:1],3,2,
1>4[2:1],8,7,6<1[2:1],5,4,
3<6[2:1],2,1,8>3[2:1],7,6,
5pp8[4:5],4,4,3,3,2,
2pp5[4:5],1,1,8,8,7,
7pp2[4:5],6,6,5,5,4,
4,3,3,4,5,5,
4>1[2:1],5,6,7<4[2:1],8,1,
2<7[2:1],3,4,5>2[2:1],6,7,
8<5[2:1],1,2,3>8[2:1],4,5,
6>3[2:1],7,8,1<6[2:1],2,3h[1:1],,,,
8b<1b[8:3],Cf,,,1/8,
{16}
1/8,,7,5,,2,4,,3/5,,4,,5/7,,8,,
8h[16:3],,,6h[16:3],,,5<8[8:1],,5,,3,,3,,,,
8/1,,2,4,,7,5,,6/4,,5,,4/2,,1,,
1h[16:3],,,3h[16:3],,,4>1[8:1],,4,,6,,6,,,,
1/8,,7,5,,2,4,,3/5,,4,,5/7,,8,,
8h[16:3],,,6h[16:3],,,5<8[8:1],,5,,3,,{4}4-1[8:1],
8-5[8:1],2-7[8:1],6-3[8:1],1b,
{8}8b,1/7,2<7[4:1]/6q3[4:1],3/5,,,,5,6,7,8,
{16}1/8,,1/8,,,2/4,,,5>1[4:1]/7,,{8},6,,,,1-6b[8:1]/2-5b[8:1],,A1/A2/D2f,
,7,8-4[8:1],,8>3[8:1]*<5[8:1],,,,
,4/6,3<6[4:1]/7-2[4:1],2/8,,,,1,8,7,6,4/5,
{16}4/5,,,7/5,,,4qq2[4:1]*pp6[4:1]/2,,{8},,,,,8-3[8:1]/7-4[8:1],,A8/A7/D8f,
,2,1-4[8:1],,1/5-8[8:1],,4/5,,
3>7[4:1],,7>3qq4[4:3],,5,,6,6,6,,
8-5[8:1],,8/4-1[8:1],,5/4,,
6<2[4:1],,2<6pp5[4:3],,4,,3,3,3,,
1-4[8:1],,1/7h[4:1],,5-3-1[4:1],,6,6,4,4,
{16}2h[16:3],,,1h[16:3],,,8,,5<8[8:1]/7,,,4/5,,,2,,
2h[16:3],,,4h[16:3],,,5,,{4}3/6-4-8[4:1]*-4v1[4:1],,,3b-6[8:1]/7b-2[8:1],3b/7b,
{8},2b/6b,{4}2b/6b,4x>1[8:1]/8x<5[8:1],
4/8q4[8:1],6/8<5[8:1],3>8[8:1]/8,3/5v8[8:1],
4v1[8:1]/5,4/6>3[8:1],1/6,{8}4/5,
2>4-1[8:1],2h[2:1],,,7<5-8[8:1],7h[2:1],,,
2>4-1[8:1],2h[2:1],,,6,7h[4:1],,5-1[8:1],,
{16}6,,,8,8<5[8:1],,4,,2,,,3,3>8[4:1]*q8[4:1],,5,,,,,,,,,,
7/8,,,4/6,,,2-4-8-3[8:5]/5,,{4}2/5-7v8-3[2:1],,,,
{32}E6,E5,E4,,{8},2-7[8:1]/6-3[8:1],,2x/6x,,
{4}1x>4[8:1]/5x<8[8:1],1p5[8:1]/5,1>4[8:1]/3,1<6[8:1]/8,
1/5qq3[8:1],5/8v5[8:1],2<7[8:1]/8,2/6,{8}4/5,
6<8-5[8:1],6h[2:1],,,3>1-4[8:1],3h[2:1],,,
6<8-5[8:1],6h[2:1],,,4,3h[4:1],,5<1[8:1],,
{16}3,,,5,5>1[8:1],,8,,6,,,5,5<1b[8:1],,2,,
4,,,5,5>1b[8:1],,8,,6,,,5,5<4b[8:3],,2,,{4}2h[4:3],,,
{8}8w4b[8:1],1b/7b,8b,,,,,,1>8-2-4-6b[8:5],,C,,,,,,,,
{16}2/7,,6,5,,3,4,,1q5[8:1]/2>4[8:1],,1/8,,,,,,
2/6,,3,4,,6,5,,8p4[8:1]/7<5[8:1],,8/1,,,,,,
3v1b[8:1]/7v5[8:1],,4/8,,,,,,3/7,,,2b-5[16:1]/6b-1[16:1],,,2b/6b,
