&title=セツナトリップ [DX]
&wholebpm=145
&artist=Last Note.
&des=小鳥遊さん
&shortid=10193
&genre=niconicoボーカロイド
&cabinet=DX
&version=maimai DX UNiVERSE PLUS
&chartconverter=Neskol
&lv_2=2
&des_2=-
&lv_3=7+
&des_3=-
&lv_4=10+
&des_4=隅田川星人
&lv_5=13
&des_5=小鳥遊さん
&des_6=
&inote_2=
(145){1},
{1},
{2}1x,1,
{1}1,
{1}1h[1:1],
{1},
{2}8,8,
{1}8,
{1}8h[1:1],
{1},
{1}1b,
{1}2,
{1}3,
{1}4,
{1}5,
{1}6,
{1}7,
{1}1x/8x,
{2}7,7,
{1}7/8,
{2}6,6,
{1}5/6,
{2}3,3,
{1}3/4,
{2}2,2,
{1}1/2,
{1}1h[2:1],
{1}1,
{1}2h[2:1],
{1}2,
{1}3h[2:1],
{1}3,
{1}4h[2:1]/5h[2:1],
{1}4/5,
{1}B4,
{1}B5,
{1}B3,
{1}B6,
{1}B7/B8,
{1}B1/B2,
{1}C1xh[1:1],
{1},
{2}8x,8,
{4}7,7,7,,
{2}6,6,
{4}5,5,4x/5x,,
{2}3,3,
{4}2,2,2,,
{2}1,1,
{4}8,8,1x/8x,,
{2}1b/8b,1x/8x,
{4}2,2,2,,
{4}3,3,3,,
{4}4,4,4x/5x,,
{4}5,5,5,,
{4}6,6,6,,
{4}7,7,7,,
{4}8,8,8,,
{4}1,1,1,,
{1}1b/8b,
{1}1-4[4:3],
{1},
{1}5-8[4:3],
{1},
{1}1-5[4:3],
{1},
{1}7-3[4:3],
{1},
{1}1b,
{1},
{1},
{1},
E
&inote_3=
(145){1},
{1},
{4}3,3,4,4,
{4}5,5,4/6,,
{4}7,7,8,8,
{4}1,1,1/8,,
{4}2,2,1,1,
{4}8,8,1/7,,
{4}6,6,5,5,
{4}4/5,4/5,3b/6b,,
{4}3h[2:1],,4,5,
{4}6h[2:1],,5,4,
{4}3h[2:1],,4,5,
{4}6,6,4/5,,
{4}3,3,4,4,
{4}5,5,4/6,,
{4}7,7,7/8,,
{4}1,1,2/8,,
{4}3,3,4,4,
{4}5,5,4/6,,
{4}7,7,8,8,
{4}1,1,1/8,,
{4}7,7,8,8,
{4}1,1,2/8,,
{4}3,3,4,4,
{4}5,4/5,3b/6b,,
{4}E7,B6,B5,,
{4}E3,B3,B4,,
{4}E7,B6,B5,B4,
{4}B3,B2,B1,,
{4}7x,7x,8,8,
{4}1,1,2/8,,
{2}3/4,5/6,
{4}4/5,4/5,3/6,,
{1}7-4[8:3],
{4}3,3,3/4,,
{1}2-5[8:3],
{4}6,6,7,7,
{1}7-3[8:3]/8-4[8:3],
{1}1-5[8:3]/2-6[8:3],
{4}7,7,8,8,
{1}1-4[8:3]/8-5[8:3],
{2}5h[4:1]/6h[4:1],3h[4:1]/4h[4:1],
{4}5/6,5/6,4/7,,
{4}3,3/4,6,5/6,
{4}3,3/4,2x/5x,,
{2}1h[4:1]/2h[4:1],7h[4:1]/8h[4:1],
{4}1/2,1/2,3/8,,
{4}7,7/8,2,1/2,
{4}3,4/5,3/6,,
{4}7,7b/8b,2,1/2,
{4}3/4,5/6,4h[4:1]/7h[4:1],,
{4}3,3/4,6,5/6,
{4}7,1/8,2/7,,
{4}2,1/2,7,7/8,
{4}5/6,3/4,2h[4:1]/5h[4:1],,
{4}6,5/6,7/8,1/2,
{1}3-8[8:3]/4-8[8:3],
{4}7,5/6,3/4,1/2,
{1}8b-3[8:3]*-5[8:3],
{4}E2,B2,B3,,
{4}E8,B7,B6,,
{4}E2,E3,E4,,
{4}E8,E7,E4/E6,,
{4}B1,B2,B3,B4,
{4}B5,B6,B7,B8,
{4}B1/B2,B3/B4,B5/B6,B7/B8,
{2}C1f,1x/8x,
{1}C1hf[1:2],
{1},
{1},
{1},
{1},
E
&inote_4=
(145){1},
{4},,,4x/5x,
{8}6,6,5/7,,4,4,3/5,,
{8}6,7,4,3,5,6,4/7,,
{8}3,3,2/4,,5,5,4/6,,
{8}3,2,5,6,4,3,2/5,,
{8}6,6,5/7,,3,3,2/4,,
{8}7,6,3,4,6,5,4/7,,
{8}3,3,2/4,,6,6,5/7,,
{8}4/5,4/5,3/6,3/6,2b/7b,,,,
{16}2,,2,,4h[16:3],,,3h[16:3],,,4,,2/5,,,,
{16}7,,7,,5h[16:3],,,6h[16:3],,,5,,4/7,,,,
{4}4>1[4:1]/5<8[4:1],,,2/7,
{16}3,,3,,5h[16:3],,,4h[16:3],,,5,,3/6,,,,
{8}4,4,6,6,3,3,5,5,
{4}2h[4:1],4h[4:1],5h[4:1],7h[4:1],
{2}8>3[16:3],7<4[16:3],
{4}3h[4:1],2h[4:1],1h[4:1],8<1[8:5],
{1}C1f,
{8}3,2,5,6,4,3,2/5,,
{8}6,6,5/7,,4,4,3/5,,
{8}6,7,4,3,5,6,4/7,,
{8}3,3,2/4,,6,6,5/7,,
{8}2,3,6,5,3,4,2/5,,
{8}6,6,5/7,,3,3,2/4,,
{8}B5/E6,B4/E4,B7/E8,B2/E2,C1f,,1x/8x,,
{16}7,,7,,5h[16:3],,,6h[16:3],,,5,,4/6,,,,
{16}2,,2,,4h[16:3],,,3h[16:3],,,4,,3/5,,,,
{4}2>5[4:1]/6<1[4:1],,,4/8,
{16}7,,7,,4h[16:3],,,5h[16:3],,,4,,3/6,,,,
{8}5,5,3,3,6,6,4,4,
{4}7h[4:1],5h[4:1],4h[4:1],2h[4:1],
{2}1<6[16:3],2>5[16:3],
{4}6h[4:1],7h[4:1],8,1>6[8:3],
{4}6x,,C1,8<3[8:3],
{4}3x,,C1,1>6[8:3],
{4}6x,,C1,8-3[4:1]*-5[4:1],
{8},,,,4,4,3/5,,
{8}2h[1:1],,4,4,,6,6,,
{8}7h[1:1],,5,5,,3,3,,
{4}2h[4:1],4h[4:1],5h[4:1],7h[4:1],
{16}8w4[4:1],,,,,,,,,,,,,,2,1,
{16}2h[8:1],,,3/8,,,5/6,,5h[8:1]/6h[8:1],,,4/7,,,1b/8b,,
{8},3/4,3/4,1/2,7/8,5/6,3/4,2,
{8}2h[8:1],4,7h[8:1],5,4,3/5,3/5,4/6,
{16}4bqq5[8:3]/6bpp5[8:3],,,,,,,,,,,,,,3,4,
{16}3h[8:1],,,2/5,,,7/8,,7h[8:1]/8h[8:1],,,1/6,,,3b/8b,,
{8},1/2,1/2,3/4,5/6,7/8,1/2,3,
{8}3h[8:1],4,6h[8:1],5,3,4/6,4/6,3/5,
{4}3/5,2-5[8:1]/7-4[8:1],,4xh[4:1]/5xh[4:1],
{16},,,,2b/7b,,,,3h[8:1]/5h[8:1],,,2/6,,,C1f/B2/B5,,
{8},1/8,1/8,6/7,4/5,2/3,1/8,7,
{8}7h[8:1],5,2h[8:1],4,5x,4x/6x,4x/6x,3x/5x,
{16}3x/5x,,2/6,,2V84[4:1]/6V84[4:1],,,,,,,,,,2,1,
{16}2h[8:1],,,3/8,,,5/6,,5h[8:1]/6h[8:1],,,4/7,,,C1f/B4/B6,,
{8},1/8,1/8,2/3,4/5,6/7,1/8,2,
{8}2h[8:1],4,7h[8:1],5,4,3/5,3/5,4/6,
{8}4qq1[8:3]/6pp1[8:3],,,,,,,1,
{8}1h[8:1],3,8h[8:1],6,1,2/8,3/7,4/6,
{4}5bV31[4:1]*V71[4:1],,,C1f,
{8}8x,8x,1x/7x,,2/8,2h[4:1]/8h[4:1],,,
{8}3,4,6,5,2,3,7,6,
{8}2h[4:1]/5h[4:1],,,4/7,4/7,,2/6,,
{8}4,3,5,6,4/7-3[8:1],,3,,
{8}5,6,7,8,1,2,3,4,
{8}E6,E7,E8,E1,E2,E3,E4,E5,
{8}7,1,5,3,E7,E1,E5,E3,
{16}2x/4x,,,5x/7x,,,3x/5x,,,4x/6x,,,1x/8x<1[1:2],,,,
{1}C1hf[1:2],
{1},
{1},
{1},
{1},
E
&inote_5=
(145){1},
{4},,,4/5,
{16}3/6,,2,1,3,8,4,7,5,,4/6,,3/5,,1/2,,
{16}3/8,,4,5,4,6,5,7h[16:3],,,8,,1/6,,2/5,,
{16}3/4,,7,8,6,1,5,2,4,,3/5,,4/6,,7/8,,
{16}1/6,,5,4,5,3,4,2-5[8:1],,,8,,7,,6,,
{16}4/5,,2,1,3,8,4,7,5,,4/6,,3/5,,1/2,,
{16}3/8,,4,5,4,6,5,7h[16:3],,,8,,1/6,,2/5,,
{16}3/4,,7,8,6,1,5,2,4,,3/5,,4/6,,7/8,,
{16}1/2,,3,5,4,6,5,8h[16:3],,,1,,2b/7b,,,,
{16}1,,1,,2/8,,3,4,,4,3,,5,,5,,
{16}8,,8,,1/7,,6,5,,5,6,,4,,4,,
{16}2,,2,,3/5,,4,5,,6,5,,8,,8,,
{16}7,,7,,4/6,,5,4,,3,4,,2b/5b,,,,
{16}1x/6x,,3,4,3,,5,4,5,,2,4,2,,6,4,
{16}6,,7,,5/6,,3,4,,5,4,,6q7[4:1],,6,,
{8}5,,,E2/E8,B2/B7,B3/B6,,4/5,
{8}4/5,,3-8[8:1]/4-7[8:1],,,,1,2,
{16}3/6,,7,8,6,1,5,2,4-8[8:1],,4,,3-5[8:1],,3,,
{16}7,,6,4,5,3,4,2h[16:3],,,1,,3/8,,4/7,,
{16}5/6,,2,1,3,8,4,7,5-1[8:1],,5,,6-4[8:1],,6,,
{16}2,,3,5,4,6,5,7-4[8:1],,,1,,2,,3,,
{16}4/5,,7,8,6,1,5,2,4-7[8:1],,4,,1-5[8:1],,1,,
{16}8,,6,4,5,3,4,2h[16:3],,,1,,3/8,,4/7,,
{16}5/6,,2,1,3,8,4,7,5-2[8:1],,5,,6,,6,,
{8}7x/8x,4x/6x,1x/2x,3x/5x,1-5[8:1]/8-4[8:1],,1b/8b,,
{16}8,,8,,1/7,,6,5,,5,6,,4,,4,,
{16}1,,1,,2/8,,3,4,,4,3,,5,,5,,
{16}7,,7,,4/6,,5,4,,3,4,,1,,1,,
{16}2,,2,,3/5,,4,5,,6,5,,4b/7b,,,,
{16}3x/8x,,6,5,6,,4,5,4,,7,5,7,,3,5,
{16}3,,2,,3/4,,6,5,,4,5,,3p2[4:1],,3,,
{8}4,,,E2/E8,B2/B7,B3/B6,,4/5,
{4}4/5,1-5[8:1]/8-4[8:1],1/8,,
{16}5x/6xh[8:3],,,,,,4,5,3h[4:1],,,,B1/B8,,,,
{16}6h[8:3],,,,,,4,5,3h[4:1],,,,B1/B8,,,,
{16}6h[8:3],,,,,,4,5,3h[4:1],,,,B1/B8,,,,
{8}5h[4:1],,4,,E2,B1,E8,B8,
{16}2,,3,,4/5,,6,5,6,5,7,,1/8,,,,
{16}7,,6,,4/5,,3,4,3,4,2,,1/8,,,,
{16}2/5,,3,,4/7,,6,,2/5,,1,,7,2,6,3,
{16}4/5,,,,,,,,,,,,2b/6b,,7,8,
{16}1x/6xh[8:1],,5,4/7,,,1/2,,3h[8:1]/8,,4,2/5,,,1x/8x<3[4:1],,
{8},3x-8[8:1],8x-4[8:1],4x-7[8:1],7x-3[8:1],2x,1b,2,
{16}3/4,,7,,5/6,,1,8,2/7,,1/8,,3qq5[16:5]/6pp4[16:5],,4/5,,
{16}3/6,,,,,,,C1f/B2/B3/B6/B7,,,,,,,2,1,
{16}3xh[8:1]/8x,,4,2/5,,,7/8,,1/6h[8:1],,5,4/7,,,1x>6[4:1]/8x,,
{8},6x-1[8:1],1x-5[8:1],5x-2[8:1],2x-6[8:1],7x,8b,7,
{16}5/6,,2,,3/4,,8,1,2/7,,3/4,,4>5[2:1]/5,,5/6,,
{16}7h[4:1],,,,,,,,8h[4:1],,,,1,8,1,,
{16}4-1[16:1]/5-8[16:1],,,,4b/5b,,,,1xh[8:1]/8xh[8:1],,,2b/7b,,,1x/5x<2[4:1],,
{8},2x-5[8:1],5x-1[8:1],1x-6[8:1],6x-2[8:1],3x,4b,3,
{16}1/2,,6,,7/8,,4,5,3/6,,7/8,,1/8,,1/2,,
{16}8-5[8:1]*z4[8:1],,1/7,,8b,,,C1f/B2/B3/B6/B7,,,,,,,3,4,
{16}2xh[8:1]/5x,,1,3/8,,,5/6,,4/7h[8:1],,8,1/6,,,4x>7[4:1]/8x,,
{8},7x-4[8:1],4x-8[8:1],8x-3[8:1],3x-7[8:1],6x,5b,6,
{16}7/8,,3,,1/2,,5,4,3/6,,1/2,,1>8[2:1]/8,,7/8,,
{16}6h[4:1],,,,,,,,C1f,,,,,,7,8,
{16}1/6,,2,1,3/8,,7,3,2/6,,1/5,,4pp7[16:11]/8pp3[16:11],,4/8,,
{2}4b/8b,C1f,
{16}1x/8x,,3,4,,6,5-1[8:1],,7,,8,,,,,,
{16}1,8,5,7,4,6,3,5,2,2,1,1,8,8,7,7,
{16}6>3[8:1],,,,,,8,7,6-2[8:1],,,,,,,,
{16}1/3,,,6/8,,,4/5,4h[16:3]/5,,,6,,3b/7b,,,,
{24}1x,2,3,8x,7,6,2x,3,4,7x,6,5,1x,2,3,8x,7,6,2x,3,4,7x,6,5,
{48}1x,,2,,3,,4x/6x,,,,,,8x,,7,,6,,3x/5x,,,,,,2x,,,1,,,3,,,8,,,4x,,,7,,,5,,,6,,,
{16}1x,1,2x,2,3x,3,4x,4,5x,5,6x,6,7x,7,8x,8,
{16}1b/7b,,,4b/8b,,,2b/5b,,,6,5,,7-3[8:1]/8-4[8:1],,,,
{32}7b/8b,C1f,,,,,,,,,,,,,,,,,,,,,,,,,,,,,,,
{1},
{1},
{1},
E
