&title=Lia=Fail
&wholebpm=186
&artist=Team Grimoire
&des=-ZONE-Phoenix
&shortid=11364
&genre=maimai
&cabinet=DX
&version=maimai DX UNiVERSE
&chartconverter=Neskol
&lv_2=5
&des_2=
&lv_3=9
&des_3=
&lv_4=12+
&des_4=Jack
&lv_5=14+
&des_5=-ZONE-Phoenix
&des_6=
&inote_2=
(186){1},
{1},
{4},1xh[2:3],,,
{1},
{1},
{4},8h[2:3],,,
{1},
{1},
{4},1,,,
{4},,,1,
{1},
{4},8,,,
{4},,,8,
{1},
{4},1xh[4:3],,,
{4},,,2h[4:3],
{1},
{4},3h[4:3],,,
{4},,,4h[4:3],
{1},
{4},5h[4:3],,,
{4},,,6h[4:3],
{1},
{4},7h[4:3],,,
{4},,,1h[4:3]/8h[4:3],
{1},
{4},8,,,
{4}8,,,7,
{2},7,
{4},6,,,
{4}6,,,4/5,
{2},4/5,
{4},4,,,
{4}4,,,3,
{2},3,
{4},2,,,
{4}2,,,1,
{2},1x/8x,
{4},1,,,
{4}2,,,3,
{2},4/5,
{4},5,,,
{4}6,,,7,
{2},1x/8x,
{4},8,,,
{4}7/8,,,6,
{2},5/6,
{4},4,,,
{4}3/4,,,2,
{2},1/2,
{4},8b,,,
{4},,,1/8,
{2},1x/8x,
{4},1,1,,
{4}2,2,,3,
{4}3,,4,4,
{4},5,5,,
{4}6,6,,7,
{2}7,1x/8x,
{4},8,8,,
{4}7,7,,6,
{4}6,,5,5,
{4},4,4,,
{4}3,3,,2,
{2}2,1b/8b,
{4},1-4[4:5],,,
{1},
{1},
{4},8-5[4:5],,,
{1},
{1},
{4},1,1,,
{4}2,2,,3,
{4}3,,4/5,4/5,
{4},5,5,,
{4}6,6,,7,
{4}7,,1/8,1/8,
{4},2b/7b,,,
{4},,,B1/B8,
{2},B2/B7,
{4},B3/B6,,,
{4}B4/B5,,,C1xh[4:3],
{1},
{4},8,8,8,
{4}7/8,,,6,
{4}6,6,5/6,,
{4},4,4,4,
{4}3/4,,,2,
{4}2,2,1/2,,
{4},8,8,8,
{4}1/8,,,1,
{4}1,1,2,2,
{4}2,3,3,3,
{4}4/5,,,5,
{4}5,5,6,6,
{4}6,7,7,7,
{4}1x/8x,,,8,
{4}8,8,7,7,
{4}7,6,6,6,
{4}4/5,4/5,4/5,3,
{4}3,3,2,2,
{4}2,1/8,1/8,1/8,
{4}2/7,2/7,2/7,3b/6b,
{1},
{1},
{1},
E
&inote_3=
(186){1},
{1},
{4},3h[4:3],,,
{4}4h[4:3],,,5h[4:3],
{2},6,
{4},7h[4:3],,,
{4}8h[4:3],,,1h[4:3],
{2},2,
{4},3h[2:1]/4h[2:1],,,
{4}3/4,,,5h[2:1]/6h[2:1],
{2},5/6,
{4},7h[2:1]/8h[2:1],,,
{4}7/8,,,1>4[2:1]/8<5[2:1],
{1},
{4},C1f,,,
{4}E3,B3,,E7,
{4}B6,,B2,B3,
{4},B6,B7,,
{4}E3,B2,,E7,
{4}B7,,B2,B1,
{4},7,6,4/5,
{4}3,2,1/8,7,
{4}6,4/5,3,2,
{8}1/8,,7,7,7,,7/8,,
{8}2,2,2,,1/2,,1/8,1/8,
{4}1/8,2/7,C1f/B4/B5,,
{4},7x,8x,1/7,
{4}2,1,2/8,3,
{4}4,5,6-3[4:1],,
{4},2,1,2/8,
{4}7,8,1/7,6,
{4}5,4,3-6[4:1],,
{4},7,7,7/8,
{4}6,6,5/6,3,
{4}3,3/4,2,2,
{8}1/8,,7,7,7,,7/8,,
{8}2,2,2,,1/2,,8,8,
{4}8,1/8,2x/7x,3x/6x,
{4}4x/5x,6,6,7,
{4}7<4[4:1],,,3,
{4}3,2,2>5[4:1],,
{4},6,6,5/6,
{4}3,3,3/4,2,
{4}1,8,2x/7x,3x/6x,
{4}4x/5x,6,7,8,
{4}8-4[4:1],,,3,
{4}2,1,1-5[4:1],,
{4},6,7,8,
{8}1,,2,,3,,4/6,4/6,
{8}4/6,,3/5,3/5,3/5,,2/6,,
{4}3/7,2bpp5[4:7]/6bpp1[4:7],,,
{1},
{1},
{4},3,4,2/5,
{4}1,8,2/7,6,
{4}5,4/7,8,1,
{4}2/7,3,4,5,
{4}6,7,8,1x/8x,
{4}1x/8x,2x/7x,3x/6x,3x/6x,
{4}4x/5x,6,5,4/7,
{4}8,1,2/7,3,
{4}4,2/5,1,8,
{8}2/7,,6,6,6,,5/6,,
{8}3,3,3,,3/4,,2,2,
{4}2,1/8,2b/7b,,
{4},3h[2:1],,4,
{4}3/4,,,6h[2:1],
{4},5,5/6,,
{4},3h[2:1],,4,
{4}3/4,,4/5,6,
{4}6,5/7,8x,1x/8x,
{4}2x/7x,3h[4:1],4,3/4,
{4}6h[4:1],5,5/6,7h[4:1],
{4}8,7/8,2h[4:1],1,
{8}1/2,,3,3,3,,4/5,,
{8}6,6,6,,7/8,,1bs5[4:3],,
{1},
{4},7<3[4:3],,,
{4},,,2>6[4:3],
{1},
{4},7<3[4:3],,,
{4},,,2,
{4}2,1,1/8,,
{4},7,7/8,1/6,
{4}5,5/6,4/7,3,
{4}3/4,2/5,1,1/8,
{4}1/8,E7,B6,B5,
{4}B4,B3,E3,C1f,
{4},,1/8,2/7,
{4}3/6,4b>1[2:1]/5b<8[2:1],,,
{8},,,,,,7,7,
{4}7,7/8,1/2,3/4,
{8}2/5,,6,6,6,,5/6,,
{8}7,,1/8,,2/7,,3,3,
{4}3,3/4,1/2,7/8,
{4}1/6,5,4/5,4/5,
{8}3x/6x,,2x/7x,,1x/8x,,7,7,
{8}7,,6/8,,2,2,2,,
{8}1/3,,6,6,6,,5/7,,
{8}4x/6x,,3x/5x,,2x/4x,,1,1,
{8}2,2,1/2,,8,8,7,7,
{8}7/8,,2,3,4,5,6,7,
{4}1/8,2/7,3/6,4b/5b,
{1},
{1},
{1},
E
&inote_4=
(186){1},
{1},
{4},C1f/1b,,,
{4}E6/3,3,4,E7/5,
{4}5,4,E8/3,,
{4}6,E1/6,,7,
{4}E2/6,6,5,E3/4,
{4}4,5,E4/6,,
{4},E5/3,3,4,
{4}E7/5,5,4,E1/3,
{4}4,5,E3/6,,
{4}3/4,E5/2,,5/6,
{4}C1/7,,4/5,B1/B8,
{4}3/6,4/5,C1hf[4:3]/B3/B6,,
{8},,,,,,2,2,
{8}4,,3,,7,7,5,,
{8}3,5,5,,4/6,,3/5,,
{8}4/7,,5,5,4,,2,2,
{4}4,3,4h[4:1],5,
{8}7,5,5,,3,,2,4,
{8}4,,5x/6x,,4/7,,3,3,
{8}4x,,2/5,,6,6,5x,,
{8}7/8,,1/2,,3x/4x,,6,5,
{8}4/7,,6xh[8:1],,5/7x,,8x,8,
{8}3xh[8:1],,2x/4,,1x,1,8x,8x,
{8}2x,2x,7x,7xp2[16:3],2x,,,,
{4}1b/8b,2-5[8:1],1-6[8:1],3,
{4}8-3[8:1],7-4[8:1],2,1-5[8:1],
{4}8-4[8:1],1,2-6[8:1],7-3[8:1],
{4}1,2>5[8:1],1<6[8:1],2,
{4}1>4[8:1],8<5[8:1],1,8>3[8:1],
{4}7<4[8:1],8,2-6[8:1]/3-8[8:1],,
{4}7b,1/8,2/4,5/7,
{8}8,1,6,5,4,3,2/5,,
{8}3/4,,6,5,4/7,,5/6,,
{8}3,4,2/5,3,4,2,1/5,,
{8}4/7,6,5,7,4/8,,2/5,3,
{24}4/7,,,6,,,4/5,,,,,,2x,,3x,,4x,,5x,,6x,,7x,,
{24}8x-4[8:1],,1x,,2x,,C1f,,,,,,,,,,,,3,,,2,,,
{8}1h[2:1],,,2,2>8[8:3],,1,,
{8},,3,3,2/4h[4:1],,5h[4:1],,
{8}7<1[8:3],,8,,,,4/8,3/7,
{8}2h[8:3]/6h[8:3],,,,2/6,,8,7,
{8}6,3,2,1,8b-4[8:1],,4b,,
{8}2b/6b,,3h[4:1]/7h[4:1],,,3/7,4,5,
{8}2h[4:1]/6h[4:1],,,2/6,3qq5[2:1]/5,,7h[2:1],,
{2},2<7[4:1]/6q3[4:1],
{8},,4/6,5,4,3,2/4,,
{8}3/5,4,5,6,5/7,,3/6,5,
{8}4,3,2x-5[8:1]/7x-4[8:1],,,,1x/8x,,
{8}2x/7x,,1xh[4:1],,8,8,1,1,
{16}8,,8,,2,7,2,7,2,7,2,7,1,8,1,8,
{48}1,,,8,,,1,,,8,,,1,,,,,,7,,,,,,2h[6:1],,,,,,,,4h[6:1],,,,,,,,5h[6:1],,,,,,,,
{8}7b,,1/2h[4:1],,3,4,3p1[2:1]/5,,
{4}8,6,4,7h[4:1]/8,
{8}6,5,4/6q8[2:1],,1,,3,,
{8}5,,7p3[4:1],,1,1,2x,,
{8}2q6[4:1],,8,8,7x,,5xh[8:1]/6xh[8:1],,
{4}3xh[8:1]/4xh[8:1],1x>4[8:1]/8x,7b-3[8:1],2b-6[8:1],
{8}8b<5[8:1],,1b,,2,1,2q4[2:1]/8,,
{4}5,7,1,5/6h[4:1],
{8}7,8,1/7p5[2:1],2,3h[4:1],,,,
{8}1,,1/8h[4:1],,2,2,7,7,
{4}1/8<5[8:1],4>1[8:1],8,6x/7x,
{12}4x/5x,,,2x/3x,,,1x/8x,2x,3x,4x/5x,6x,7x,
{4}1b/8b,B1/C1f/B4/B5/B8,,,
{4}E8,C1,E4,5xh[2:3],
{4},,E6,C1,
{4}E2,3xh[4:3],,,
{4}7xh[4:3],E5,E3,1xh[4:3],
{4}E1,E7,5b,3b/7b-3[8:1],
{8}1b,,2h[4:1],,3,4,5pp5[2:1],,
{4}3h[4:1],,4,3/6h[4:1],
{8}3,2,1pp1[2:1],8,7h[4:1],,,,
{8}8,,1/2,1/2,7/8,7/8,2/6,2/6,
{8}3/4,3/4,5/6,5/6,3/7,3/7,2-5[8:1],2,
{8}7-4[8:1],7,1-5[8:1],1,8-4[8:1],8,2-6[8:1],2,
{128}7-3[8:1],,,,,,,,,,,,,,,,7,,,,,,,,,,,,,,,,1b,C1f,,,,,,,,,,,,,,,,,,,,,,,,,,,,,,,,,,,,,,,,,,,,,,,,,,,,,,,,,,,,,,,,,,,,,,,,,,,,,,,,,,,,,,,,,,,,,,,
{4}2h[4:3],,,3h[4:3],
{2},4h[4:3],
{4},5h[4:3],,,
{4}6h[4:3],,,7h[4:3],
{4},,5x-1[8:1],8x-4[8:1],
{8}3b,,2/6,,3/7,,5pp4[16:7],4,
{8}4,,2x,,3qq5[2:1],5,5,,
{8}6x,,7pp4[16:9],3,3,,2x,,
{12}1h[4:1],,,3x-7[8:1],3x,,2x-6[8:1],2x,,1x-5[8:1],1x,,
{24}8x-4[8:1],,8x,,,,7x-3[8:1],,7x,,,,6x-2[8:1],,6x,,,,8x,,,8,,,
{8}1x,1,2x/7x,2/7,3/6x,3/6,4x/5x,4/5,
{1}4xqq1[8:5]/5xpp8[8:5],
{12}2b,2x,2x,7b,7x,7x,C1f/B4/B5,,,8h[4:1],,,
{8}1,2,8,7,1h[4:1],,3,4,
{8}1,2,8h[4:1],,6,5,8,7,
{8}5-1[8:1]/6,,8-4[8:1],,2x,,1,1,
{8}4,2,6,5,8,8,5,7,
{8}3,4,1,8,2/7,2/7,3/6,3/6,
{4}4xv1[8:1]/5xv8[8:1],,2b/7b,1h[4:1]/5,
{8}3,4,2,3,4/8h[4:1],,6,5,
{8}7,6,1h[4:1]/5,,8,7,1,2,
{4}3/4x-8[8:1],1x-5[8:1],7b,4x/6xh[4:1],
{8}7,8,1,2,3xh[4:1]/5x,,2,1,
{8}8,7,4x/6x,6,2x/5x,2,4x/8x,8,
{12}3x/7x,2,1,8x,7,6,5x,4,3,2xh[1:3]/6b<6[4:11],,,
{1},
{1},
{1},
{1},
{1},
E
&inote_5=
(186){1},
{1},
{48},,,,,,,,,,,,1x,2/8,3/7,4/6,5h[3:2],,,,,,,,,,,,,,,,,,,,,,,,,,,,,,,,
{4}4h[4:3],,,6h[4:3],
{2},3h[4:3],
{4},4h[4:3],,,
{4}5h[4:3],,,6h[4:3],
{2},C1xh[4:3],
{4},7h[2:1],,,
{4}B6/6h[2:1],,,B5/5h[2:1],
{2},B4/4h[2:1],
{4},B3/3h[2:1],,,
{4}B2/2h[2:1],,,B1/1h[2:1],
{2},C1hf[4:3]/8,
{384}7-3[8:1],,,,,,,,,,,,,,,,,,,,,,,,,,,,,,,,,,,,,,,,,,,,,,,,,,,,,,,,,,,,,,,,,,,,,,,,,,,,,,,,,,,,,,,,,,,,,,,,,B7,,B3,,,,,,,,,,,,,,,,,,,,,,,,,,,,,,,,,,,,,,,,,,,,,,,,,,,,,,,,,,,,,,,,,,,,,,,,,,,,,,,,,,,,,,,,,,,,,,,,,,,,,,,,,,,,,,,,,,,,,,,,,,,,,,,,,,,,,,,,,,,,,,,,,,,,,,,,,,,,,,,,,,,,,,,,,,,,,,,,,,,,,,,,,,,,,4/5,,,,,,,,,,,,,,,,,,,,,,,,,,,,,,,,,,,,,,,,,,,,,,,,,,,,,,,,,,,,,,,,,,,,,,,,,,,,,,,,,,,,,,,,,,,,,,,,
{8}3,3,5,,4/6,,3/5,,
{24}6,,,6,,,4,,,,,,3,4,3,4,,,,,,,,,
{4}3,4,3/5,4/6,
{8}6,6,5,,3/5,,4/6,,
{24}3,,,3,,,4,,,,,,6,5,6,5,,,,,,,,,
{4}4/5,2xh[4:1]/4,4,3/5,
{8}4/6,6,4/6,,5/6,,5/7h[4:1],,
{24}5,,,,,,4/5,,,,,,3,4,3,4,,,4/5,,,,,,
{8}5/6,5,5xh[4:1]/7,,6,6,3,4,
{16}2/5xh[4:1],,,,4,,4,,4/8,,4/8,,3x,7,2,6,
{16}1x,5,8,4,1x,5,2,6,3x-8[8:1]/7x-4[8:1],,,,3x/7x,,,,
{4}1x/5x,3/6p4[2:1],3,3,
{16}2,,2,3,4,,4,,5,,5,,2-6[8:1],,2,,
{16}8-4[8:1],,8,,1,,1,,2,,2,3,4,,4,,
{8}5,5,3/6p4[2:1],,3,,3,,
{16}2,,2,3,4,,4,,5,,5,,4/6h[2:1],,,,
{8}5,,4,3,2/4,5,4/6,7,
{16}1,8,2,7,3xq5[2:1],,,,6,,,,6,,,,
{16}7,,7,6,5,,5,,4,,4,,7-3[8:1],,7,,
{16}1-5[8:1],,1,,8,,8,,7,,7,6,5,,5,,
{8}4/7-4[8:1],,2q5[2:1]/7x,,6,6,6,6,
{48}7x,,,,,,7,,,,,,6,,,,,,6,,,,,,4/5,,,,,,3,,,4,,,2h[8:1],,,,,,8,,7,,6,,
{24}5h[8:1],,,7,6,5,4h[8:1],,,8,,,7x,,5,,6,,2x,,4,,3,,
{24}7x,,8,,6,,1x/5x,,,,,,4/5,,,6<8[8:1],,,8>2[8:1],,,2>4[8:1],,,
{8}4<8[4:1],,8,1,2,,5/7,,
{8}4/5,3>1[8:1],1<7[8:1],7<5[8:1],5>1[4:1],,1,8,
{8}7,,2-6[8:1],6V48[4:1],2,8,7,6,
{16}5h[4:1],,,,1,,2,4,3,,5/6,,4/7-3[8:1],,7,,
{8}2-6[8:1]/7,2,2/8<5[8:1]*>3[8:1],,8xw4[8:1],,8x,,
{8}2x/6x,,3x/7x,,4/5,6<8[8:1],8>2[8:1],2>4[8:1],
{8}4<8[4:1],,8,1,2,3,4/6,,
{8}4/5,3>1[8:1],1<7[8:1],7<5[8:1],5>1[4:1],,1,8,
{8}7,6,2-6[8:1],6V48[4:1],2,8,7,6,
{8}1-5[8:1],5V37[4:1],1,7,6,5,1/5h[4:3],1,
{32}1,,,,1,,,,1,,,,1,,,,1x,8,7,6,5,4,3,2,1x,8,7,6,5,4,3,2,
{96}1b/8b,,,,,,,,,,,,,,,,,,,,,,,,3x/6x,,,,,,,,,,,,,,,,4,,,,,,,,5,,,,,,,,4,,,,,,,,5,,,,,,,,4,,,,,,,,,5,,,,,,4,,,,,,5,,,
{192},,,,,,4,,,,,,,,,,,,5,,,,,,,,,,,,4,,,,,,,,,5,,,,,,,,,4,,,,,,,,,,5,,,,,,,,,,4,,,,,,,,,,,,5,,,,,,,,,,4,,,,,,,,,,5,,,,,,,,,,,,4,,,,,,,,,,5,,,,,,,,,,4,,,,,,,,,,,,5,,,,,,,,,,,,4,,,,,,,,,,,,5,,,,,,,,,,,,4,,,,,,,,,,,,
{48}5,,,,4,,,,5,,,,4,,,,,,5,,,,,,4h[16:3],,,,,,,,,5,,,,,,,,,4/5,,,,,,
{8}2/7,,1x<5[16:3]/8x,,1/3,3,4,5,
{8}6/8>4[16:3],,6/8,6,5,4,1<5[16:3]/3,,
{16}1/2,,2,3,4,,4,,4-8[8:1]/5h[4:1],,,,4,,5,,
{8}2/6,3,4/8>4[16:3],,7/8,6,5,4,
{8}4h[4:1]/5-1[8:1],,5,4,3/7,6,2-4[8:1],4V28[4:1],
{8}2V84[4:1],8,7,6,5x-8[8:1],,2x-5[8:1]/5,,
{8}1x/2,,5x>1[16:3]/7x,,5/6,7,8,1,
{8}2/4<8[16:3],,3/4,2,1,8,5x>1[16:3]/7,,
{8}5/6,7,8,1,2h[2:1]/5,,4,4,
{16}4,,4,,3x/5,,6,5,7,,3/8,,2,1,3,8,
{16}4xh[8:1],,7,5,6,,4/5,,4,5,4,5,2-4[8:1]/7x,,,,
{4}2x-6[8:1]/8-3[8:1],2/8x<5[8:1],4x-2[8:1]/8-4[8:1],4x/8-6[8:1],
{192}1w5[8:1]/8x,,,,,,,,,,,,,,,,,,,,,,,,,,,,,,,,,,,,,,,,,,,,,,,,1x,C1f,,,,,,,,,,,,,,,,,,,,,,,,,,,,,,,,,,,,,,,,,,,,,,,,,,,,,,,,,,,,,,,,,,,,,,,,,,,,,,,,,,,,,,,,,,,,,,,,,,,,,,,,,,,,,,,,,,,,,,,,,,,,,,,,,,,,,,,,,,,,,,,
{1},
{1},
{4}4/5,3h[4:1]/6x,2,4/5,
{12}3x/6h[4:1],,,7,,,4/5,,,7x,5,6,
{96}1x,,,,,,,,3,,,,,,,,2,,,,,,,,8x,,,7,,,6,,,5,,,4,,,3,,,2,,,1,,,2x/8x,,,3x/7x,,,4x/6x,,,5x,,,,,,,,,,,,,,,1x/7x,,,2/6,,,3/5,,,4,,,,,,,,,,,,,,,
{8}2x/8x,,3-7[8:1]/7-4[8:1],4/8,3<6[8:1]/7>2[8:1],,3x/7x-3[8:1],,
{8}4-8[8:1]/7,,4/5,6,1/7,,2x-5[8:1]/6x-2[8:1],1/5,
{8}2<7[8:1]/6>3[8:1],,2x-6[8:1]/6x,,2/5-8[8:1],,3/5,2,
{8}1,8,5/7-3[8:1],7,6-2[8:1],6,5-1[8:1],5,
{16}4-8[8:1],,4,,3-7[16:1],,3,,1,,1,,1,6,1,6,
{32}2,,7,,2,,7,,3,,8,,3,,8,,4,5,6,7,8,1,2,3,4,5,6,7,8,1,2,3,
{32}4,5,6,7,8,1,2,3,C1f/4x,,,,,,,,,,,,,,,,,,,,,,,,
{1},
{1},
{4},3h[2:1],,4h[4:1],
{4}6h[2:1],,5h[4:1],4h[4:1],
{4}3h[4:1],4q5[2:1],5,,
{8}8b,,7<4[8:1],4-7[8:1],7-2[8:1],2<7[8:1],3-7[8:1],3,
{8}3>5[4:1],,3x,,4x,3,2>5[8:1],5-2[8:1],
{8}2-7[8:1],7>2[8:1],6-2[8:1],6,6<4[4:1],,6x,,
{24}5x,,,6,,,4x/7xh[4:1],,,,5,,5h[4:1],,,,4,,4h[4:1],,,,2,,
{12}2h[4:1],,1,1h[4:1],,8,8,,7/8,7/8>5[2:1],,,
{8}6,6,6,6,7-3[8:1],,2-6[8:1]/7,,
{16}2/7,,,,5,4,5,4,5,4,5,4,5,4,5,4,
{16}4x-2[8:1]/5x-7[8:1],,,,4x-8[8:1]/5x-1[8:1],,,,4x/5x,,,,1x/8x-6[8:1],,1,2,
{16}3/8-4[8:1],,3,,3/8,2,1,,1-3[8:1]/6,,6,7,1-5[8:1]/8,,8,,
{16}1/8,7,6,,3/8<6[8:1],,3,2,1/8-4[8:1],,1,,1/8,2,3,,
{16}2/6,,2,4,3,6,5,7,1,8,1,8,1>3[8:1],,8,7,
{16}1-5[8:1]/6,,6,,1/6,7,8,,1/8,,2,4,3,5,4,6,
{48}8,,,7,,,8,,,7,,,1xh[1:0]/6,,,,2,,,,3,,,,4x/8xh[1:0],,,,7,,,,6,,,,4xh[1:0]/5,,,,3,,,,2,,,,
{16}1>4[8:1]/5<8[8:1],,,,1-5[8:1]/5-1[8:1],,,,1/5,,,,3-5[8:1]/8x,,8,7,
{16}3-1[8:1]/6,,6,,3/6,7,8,,3/7-5[8:1],,3,2,1/7-1[8:1],,1,,
{16}1/7,2,3,,2-8[8:1]/5,,5,6,2-4[8:1]/7,,7,,2/7,6,5,,
{16}4x/5x,,7,4,5x,2,6,3,8x,1,8,1,7x,5,6,2,
{16}4,3,7,5,6,2,4,3,8x,6,7,1,3,2,8,6,
{32}7,,1,,3,,2,,8x,7,6,5,2x,3,4,5,7x,6,5,4,1x,2,3,4,7x,6,5,4,3,2,1,8,
{32}7x,6,5,4,3,2,1,8,E8/7x,E7/6,E6/5,E5/4,E4/3,E3/2,E2/1,E1/8,E8/7x-3[16:1]*w3[16:1],,,,,,,,C1f/7b,,,,,,,,
{1},
{1},
{1},
E
