&title=君の知らない物語 [DX]
&wholebpm=165
&artist=supercell「化物語」
&des=某S氏
&shortid=10181
&genre=POPSアニメ
&cabinet=DX
&version=maimai DX PLUS
&chartconverter=Neskol
&lv_2=3
&des_2=
&lv_3=6
&des_3=
&lv_4=8
&des_4=はっぴー
&lv_5=12
&des_5=某S氏
&des_6=
&inote_2=
(165){1},
{1},
{1}1,
{1}1,
{1}8,
{1}8b,
{1}1,
{1}8,
{1}1h[8:11]/8h[8:11],
{1},
{1}1-4[4:3],
{1},
{1}8-5[4:3],
{1},
{1}1,
{1}1,
{1}2,
{1}2,
{1}3h[2:1],
{1}3h[2:1],
{1}4-8[4:3],
{1},
{2}7,7,
{1}7,
{2}6,6,
{1}6,
{1}5h[2:1],
{1}5h[2:1],
{1}4h[2:1],
{1}4h[2:1],
{1}5-1[4:3],
{1},
{1}B8,
{1}B1,
{1}B7,
{1}B2,
{1}B6,
{1}B3,
{1}C1hf[1:1],
{1},
{2}1,1,
{4}2,2,2,,
{2}3,3,
{4}4,4,4,,
{2}5,5,
{2}6,6,
{1}7h[2:1],
{1}1h[2:1]/8h[2:1],
{2}8,8,
{4}7,7,7,,
{2}6,6,
{4}5,5,5,,
{1}4h[2:1],
{1}3h[2:1],
{1}2h[2:1],
{1}1h[2:1],
{4}8,8,8b,,
{4}1,1,1b,,
{1}1h[2:1]/8h[2:1],
{2}1/8,1/8,
{1}2x/7x,
{1},
{1},
{1},
E
&inote_3=
(165){1},
{1},
{4}7,7,7/8,,
{4}2,2,1/2,,
{4}7,7,8,8,
{4}1,1,2x/8x,,
{4}2,2,1/2,,
{4}7,7,7/8,,
{4}2,2,1,1,
{4}8,1/8,2x/7x,,
{1}1>4[2:1],
{1}5<8[2:1],
{1}1-5[2:1],
{4}6,6,5x/7x,,
{1}6h[1:1],
{1}5h[1:1],
{1}4h[1:1],
{1}3x,
{1}1h[2:1]/2h[2:1],
{1}7h[2:1]/8h[2:1],
{1}1h[2:1]/8h[2:1],
{1}2x/7x,
{4}6,6,5/6,,
{4}3,3,3/4,,
{4}6,6,5/6,,
{4}3,3,2x/4x,,
{2}3h[4:1]/4h[4:1],3/4,
{2}5h[4:1]/6h[4:1],5/6,
{2}4h[4:1]/5h[4:1],4x/5x,
{2}4h[4:1]/5h[4:1],3x/6x,
{4}3,3,2,2,
{4}1,1,2x/7x,,
{2}E3,B3,
{1}B4,
{2}E7,B6,
{1}B5,
{4}3x,3x,2x,2x,
{4}1x,1x,8x,8x,
{4}1x/8x,1x/8x,2b/7b,,
{1}C1f,
{4}2,1/2,7,7/8,
{4}2,2,1x/3x,,
{4}7,7/8,2,1/2,
{4}7,7,6x/8x,,
{1}7-4[2:1]/8-3[2:1],
{1}1-6[2:1]/2-5[2:1],
{4}5x/6x,5x/6x,4x/7x,,
{4}3x/4x,3x/4x,2b/5b,,
{4}2,1/2,7,7/8,
{4}2,2,1x/3x,,
{4}7,7/8,2,1/2,
{4}7,7,6x/8x,,
{1}7-4[2:1]/8-3[2:1],
{1}1-6[2:1]/2-5[2:1],
{1}7<4[2:1]/8>3[2:1],
{1}1<6[2:1]/2>5[2:1],
{4}6x,6x,7x,7x,
{4}8x,8x,1x,1x,
{4}1x/8x,1x/8x,2x/7x,,
{2}E2,E8,
{1}C1hf[1:1],
{1},
{1},
{1},
E
&inote_4=
(165){1},
{1},
{4}1/7,5,2/8,4,
{4}2/6,5,3/7,4,
{4}1/7,5,2/8,4,
{4}5/7,8,1,2/4,
{4}2/8,4,1/7,5,
{4}3/7,4,2/6,5,
{8}2h[4:1]/8h[4:1],,,1/7,,8,8,1h[4:1],
{8},7,,3b/8b,,1b/6b,,,
{8}3,,2/4,,8,8,1,,
{8}6,,5/7,,1,1,8,,
{8}3,,2/4,,8h[4:1],,1,1,
{8},1x/8x,1x/8x,,2x/7x,2x/7x,2x/7x,,
{1}8-6[4:1],
{1}6-3[8:3],
{1}3-8[8:3],
{1}8h[1:1],
{2}2h[2:1],4h[2:1],
{2}5h[2:1],7,
{1}6<3[4:3],
{1},
{4}3h[1:1],4,4,4,
{4}E5,B1/B8,B4/B5,,
{4}6h[1:1],5,5,5,
{4}E5,B1/B8,B4/B5,,
{2}3h[2:1],1h[2:1],
{2}8h[2:1],6h[2:1],
{2}8h[2:1],1h[2:1],
{2}3h[2:1],6h[2:1],
{1}C1hf[1:1],
{4}E1,,,8,
{4}8,7,6,5,
{4}1,2,3,4,
{4}5,6,7,8,
{2}8-4[4:1],1b,
{4}1/2,3/8,4/7,5/6,
{4}7/8,1/6,2/5,3/4,
{2}1h[4:1]/8h[4:1],2/7,
{1}C1f/B3/B6,
{8}8,,5/7,,3,3,4,,
{8}1,,2/4,,6,6,5,,
{8}8,,5/7,,3,3,4,,
{4}1,2/8,5/6,4x>5[4:3]/7x,
{1},
{4}8x,,4/5,2/7,
{2}1>4[4:1],8<5[4:1],
{4}1-5[4:1],,7,4/6,
{8}1,,2/4,,6,6,5,,
{4}7h[4:1],5h[4:1],4h[4:1],2,
{8}8,,5/7,,3,3,4,,
{4}2h[4:1],4h[4:1],5,3x/6x,
{2}7h[1:1],B6/E7,
{2}2h[1:1],B3/E3,
{2}6h[1:1],B4/E5,
{2}3h[1:1],B5/E5,
{4}6,4/5,4/5,4/5,
{4}4/5,3/6,2/7,1/8,
{8}2/7,,6,5/7,,3,2/4,,
{8}8h[4:1],,1,1,,3qq6[8:9]/6,,,
{1},
{1},
{1},
{1},
E
&inote_5=
(165){1},
{1},
{4}1-5[8:1],5,8-4[8:1],4,
{4}1>5[8:1],5,8<4[8:1],4,
{4}2-6[8:1],6,7-3[8:1],3,
{4}2/4,1/3,6/8,5/7,
{4}6-2[8:1],1-5[8:1],4-8[8:1],2,
{4}3-7[8:1],8-4[8:1],5-1[8:1],7,
{8}6h[4:1],,4,3h[4:1],,5,6,7h[4:1],
{8},8,1,8xw4[8:1],,8b,,,
{1}1h[4:3]/2>7[2:1],
{8}8h[4:1],,,1h[4:1]/7h[4:1],,,2/6p3[2:1],,
{8}4h[4:3],,,,,,,4/5,
{8},E8,E4,E7,E3,E6,E2,C1,
{8}1,8,7,6b,5,4,3b,4,
{8}5,6,7,8b,,1h[4:7],,,
{2}6x-3[8:1],3x-8[8:1],
{8}8x-6[8:1],,,,,4/5,,,
{2}6p4[8:3],3qq6[8:3],
{8}8p5[8:3],,,,1h[2:1],,,8,
{8}8>4[2:1],,,,,1,1,1<5[2:1],
{1},
{8}5-1[8:1],4,5,,3-8[8:1],4,3,,
{8}6,5,7,8x,,1b/7b,,8,
{8}1-5[8:1],8,1,,7-4[8:1],8,7,,
{8}2,1,2,3,,2/4,,,
{1}1pp3[2:1]/5pp7[2:1],
{1}4qq2[2:1]/8qq6[2:1],
{2}1-4[8:1]/5-8[8:1],1-6[8:1]/5-2[8:1],
{2}2-7[8:1]/6-3[8:1],4-7[8:1]/8-3[8:1],
{1}4/8z4[4:5],
{4},,,3,
{4}2h[4:3],E4,C1,E6,
{4}6h[4:3],E8,C1,E2,
{4}3h[4:3],E5,C1,E1,
{4}E2/E8,E3/E7,E4/E5/E6,,
{4}4-1[2:1],8,7,6,
{4}5-8[8:1],3,4-8[8:1],5,
{8}B1/C1hf[1:1]/B2/E2/B6/B7/E7,,,,,,8,8,
{1}8b<5[8:3]*>4[8:3],
{4}2-5[8:1],1/2,8-3[8:1],7/8,
{4}6-1[8:1],5/6,4-7[8:1],3/4,
{4}2V48[16:3],2/5,7V51[16:3],4/7,
{8}3v5[8:1],,3/8,,6v4[8:1],1x,1x,,
{4}1-5[8:1],5-2[8:1],2-7[8:1],7-4[8:1],
{4}4-8[8:1],8,1/7,4/5,
{8}1-6[4:1]/2-5[4:1],,,,,,,8-3[4:1],
{1}7-4[4:1],
{4}1-4[8:1],1x/8x,1-6[8:1],1x/2x,
{4}8-5[8:1],1x/8x,8-3[8:1],7x/8x,
{4}1-4[8:1],1-6[8:1]/8x,1-5[8:1]/2x,1b/8x,
{4}8-5[8:1],1x/8-3[8:1],7x/8-4[8:1],1x/8b,
{8}3,3,,3,3-8[8:1]/4h[4:1],,,,
{8}5,5,,5,4h[4:1]/5-1[8:1],,,,
{8}4,4,,4,4-8[8:1]/5h[4:1],,,,
{8}6,6,,6,5h[4:1]/6-1[8:1],,,,
{8}4,,4/5,4/5,3/6,3/6,3/6,3/6,
{8}2/7,2/7,2/7,2/7,1/8,1/8,1/8,1/8,
{8}2b/5,2/5,5,5/7b,5/7,5,2b/5,,
{8}4/5,4/5,,2/4,,3/7,,,
{1}1b<1[4:7]*>1[4:7]/5b,
{1},
{1},
{1},
{1},
E
