&title=Jump!! Jump!! Jump!!
&wholebpm=183
&artist=曲:宮崎誠/歌:オンゲキシューターズ
&des=ロシェ@ペンギン
&shortid=11080
&genre=オンゲキCHUNITHM
&cabinet=DX
&version=maimai DX
&chartconverter=Neskol
&lv_2=3
&des_2=-
&lv_3=7
&des_3=-
&lv_4=9
&des_4=サファ太
&lv_5=12
&des_5=ロシェ@ペンギン
&des_6=
&inote_2=
(183){1},
{1},
{1},
{1},
{1},
{1},
{1},
{1},
{1},
{1},
{1},
{1},
{1},
{1},
{1}1,
{1}1,
{1}8,
{1}8x,
{1}7,
{1}7,
{1}6,
{1}6,
{1}5,
{1}5,
{1}4x/5x,
{1}4,
{1}4,
{1}3,
{1}3,
{1}2,
{1}2,
{1}1h[1:1],
{1},
{2}2,2,
{1}2,
{2}3,3,
{1}3,
{2}4,4,
{1}4,
{2}5,5,
{1}4b/5b,
{1}B6,
{1}B7,
{1}B8,
{1}B1,
{1}B2,
{1}B3,
{1}B4/B5,
{1}B3/B6,
{1}B2/B7,
{1}B1/B8,
{1}C1hf[1:1],
{1},
{4}1,1,1,,
{4}2,2,2,,
{4}3,3,3,,
{4}4,4,4,,
{1}5h[2:1],
{1}4h[2:1],
{2}4/5,4/5,
{4}4x,5x,4x,,
{4}5,5,5,,
{4}6,6,6,,
{4}7,7,7,,
{4}8,8,8,,
{1}1h[2:1],
{1}1x/8x,
{1}8h[2:1],
{1}1x/8x,
{2}1,1,
{2}8,8,
{1}1h[1:1]/8h[1:1],
{2},1/8,
{1}1-5[4:3],
{1},
{1}8-4[4:3],
{1},
{1}2-5[4:3],
{1},
{1}7-4[4:3],
{1},
{1}3h[1:1],
{1},
{1}3/4,
{1}3/4,
{1}5/6,
{1}5/6,
{2}7,7,
{2}8,8,
{1}1h[2:1]/8h[2:1],
{4}1x,8x,1b,,
{4}1,1,1,,
{4}2,2,2,,
{4}3,3,3,,
{4}4,4,4,,
{1}5h[2:1],
{1}4x/6x,
{1}4h[2:1],
{1}3x/5x,
{2}4/5,4/5,
{2}3/6,3/6,
{2}2/7,2/7,
{2}1/8,1/8,
{1}1xh[8:31]/8xh[8:31],
{1},
{1},
{1},
{1},
{1},
E
&inote_3=
(183){1},
{1},
{1}3xh[1:1],
{1}4h[1:1],
{1}5h[1:1],
{2}6,6,
{1}6h[1:1],
{1}5h[1:1],
{1}4h[1:1],
{2}3,2,
{1}1pp4[4:11]/8qq5[4:11],
{1},
{1},
{1},
{2}3h[2:1],4h[2:1],
{2}5h[2:1],6h[2:1],
{2}7h[2:1],8h[2:1],
{4}1,1,2b/7b,,
{4}2,1,7/8,,
{4}7,8,1/2,,
{4}3,2,1,8,
{4}7,5/6,4x/7x,,
{4}7,8,1/2,,
{4}2,1,8,7,
{4}8,1x/8x,2b/7b,,
{2}3h[2:1],4,
{2}6h[2:1],5,
{4}4h[2:1],,5,6,
{4}7,6,5x/6x,,
{2}6h[2:1],5,
{2}3h[2:1],4,
{4}5h[2:1],,4,3,
{4}2,3,3x/4x,,
{4}3,4,5/6,,
{4}6,5,3/4,,
{4}2,1,8,7,
{4}6,5,4x/5x,,
{4}6,5,3/4,,
{4}3,4,5/6,,
{4}7,7,8,8,
{4}1,1/8,2x/7x,,
{1}2>6[8:7],
{4},,7x,7x,
{1}7<3[8:7],
{4},,2x,2x,
{1}1-4[4:3],
{4},5x,4b/5b,,
{4}6,6,7,7,
{4}8,8,1,1,
{4}2,2,3,3,
{4}4/5,4/5,3/6,2/7,
{2}1x/8x,1x/8x,
{1}2b/7b,
{4}2,2,1/8,1/8,
{4}7,7,1/8,1/8,
{4}2,3,4,4/5,
{4}6,5/6,4x/7x,,
{4}6h[2:1],,5,4,
{4}3h[2:1],,4,5,
{4}5x,5x,4xh[4:1]/5xh[4:1],,
{4}4x/5x,3x/6x,2b/7b,,
{4}7,7,1/8,1/8,
{4}2,2,1/8,1/8,
{4}7,6,5,4/5,
{4}3,3/4,2x/5x,,
{4}2,2,1x,1x,
{1}1xh[2:1]/8xh[2:1],
{4}8,8,1x,1x,
{1}2xh[1:1]/7xh[1:1],
{4},,6,6,
{4}5,5,4,4,
{1}4-1[8:5]/5-8[8:5],
{4},,1/8,1/8,
{2}2x/7x,B3,
{2}B5,B4,
{2}B6,B7,
{1}C1,
{2}B6,B4,
{2}B2,B8,
{2}B6,B4/B5,
{2}B3/B6,B2/B7,
{1}C1xh[1:1],
{1},
{1}4xh[2:1]/6xh[2:1],
{1}3xh[2:1]/5xh[2:1],
{1}4xh[1:1]/5xh[2:1],
{2},3x/6x,
{4}6h[2:1],,5,4,
{4}3h[2:1],,4,5,
{4}5x,5x,4xh[4:1]/5xh[4:1],,
{4}4x/5x,3x/6x,2b/7b,,
{4}7,8,1/2,1/2,
{4}3,3,2/4,2/4,
{4}3,4,5,6,
{4}5/6,5/6,4x/7x,4xh[4:1]/7xh[4:1],
{4},,8x,8x,
{1}1xh[2:1]/8xh[2:1],
{4}1,1,8x,8x,
{1}2xh[1:1]/7xh[1:1],
{4},,2,2,
{4}1,1,8,8,
{1}1>4[8:5]/8<5[8:5],
{4},,4x/5x,3x/6x,
{1}2x>8[4:11]/7x<1[4:11],
{1},
{1},
{8},,,,1x/8x,1x/8x,1x/8x,2b/7b,
{1},
{1},
{1},
E
&inote_4=
(183){1},
{1},
{2}B6,B5,
{2}B4,B3,
{2}E6/B6,B3/E4,
{2}B7/E8,B2/E2,
{4}C1,,3,2,
{4}1,8,7,6,
{1}3h[1:1]/6h[1:1],
{4},,3/6,4pp1[2:3]/5,
{1},
{1},
{2}6,6,
{4}6,6>3[4:1],,,
{2}2x/4x,5x/7x,
{2}1x/2x,7x/8x,
{2}2x/4x,5x/7x,
{4}3xh[4:1]/6xh[4:1],,3x/6x,1b/8b,
{4}2,3/4,6h[4:1],5,
{4}7,5/6,3h[4:1],4,
{8}4/6,,5,5x,,4x/6x,,3x/5x,
{8},4,4,5x,,2x/7x,,,
{4}3/4,2,5/6,7,
{8}4x/5x,4x>1[8:3]/5x<8[8:3],,,,,,,
{8}2xh[8:3]/7xh[8:3],,,,,4x/5x,4x/5x,,
{4}3h[4:5]/6,6,5,5,
{4}4,4,5,4,
{4}3/5,3,4/6,6p4[4:3],
{1},
{4}3h[2:1],4,4,4/5,
{4}6h[2:1],5,5,3q5[4:3]/4,
{1},
{4}3h[4:1]/6h[4:1],,3/6,4/5,
{4}3h[1:1],4,5,6,
{4}7h[4:3],5,4,3,
{4}2,2/4,7,5>1[8:5]/7,
{4},,,8,
{4}6x,4/5,3,4/5,
{4}7,5/6,2,3x-8[4:1]/4x-7[4:1],
{4},,1/6,2/5,
{8}3h[4:1]/4h[4:1],,,,2x/7x,2x/7x,,,
{4}4/5h[2:1],,E5,C1,
{4}6h[2:1],,5x,4x/7x,
{4}4h[2:1]/5,,E5,C1,
{4}3h[2:1],,4x,2x/5x,
{4}6h[2:1],,B5,C1,
{2}2h[4:1]/7h[4:1],C1f,
{4}2xh[4:1],3h[4:1],4,4/5,
{4}7h[4:1],6h[4:1],5,4/5,
{4}2h[4:1]/7,3h[4:1],4h[4:1],5s1[4:3],
{1},
{2}B2/B3/E4,B6/E6/B7,
{4}B1/C1f/B8,,,1x/8x,
{8}2b/7b,,6x,5x/6x,,3x,3x/4x,,
{4}2/5,1/8,5/6,2/7,
{4}3h[4:1]/5,8,4/6h[4:1],1,
{8}2x/8x,,4x/7x,4x/7x,,2x/5x,2x/5x,,
{4}4,2/6,5,3/7h[4:1],
{4}5h[4:1],4h[4:1],3,2/5,
{8}3xh[2:1]/6xh[2:1],,,,,,,2x/7x,
{4},4x/5x,C1f/B2/B7,,
{8}1x/8x,,2x,1x/2x,,7x,7x/8x,,
{4}1/6,4/5,1/2,3/8,
{4}4/6h[4:1],1,3h[4:1]/5,8,
{8}1/7,,2x/5x,2x/5x,,4x/7x,4x/7x,,
{4}2/6h[2:1],2,4,5/6,
{1}C1f,
{4}3h[2:1]/7,7,5,3/4,
{1}C1f,
{4}4/5h[2:1],,E5,C1,
{4}E1,E2/E8,E3/E7,4xqq1[1:1]/5xpp8[1:1],
{1},
{4},,2x/7x,5xqq1[2:3]/6h[4:7],
{1},
{1},
{2}2x/4x,5x/7x,
{2}1x/3x,6x/8x,
{4}2/4,2,4/5,5,
{4}2/4,2,4/6,6,
{4}E4/B4,B6/E7,E2/B2,,
{4}B7/E8,B2/B3,B5/E6,,
{1}C1xh[1:1],
{4},,2x/7x,2x/7x,
{1}5h[2:1]/6<8[8:3],
{1}3>1[8:3]/4h[2:1],
{1}4>1[8:3]/5<8[8:3],
{2}1h[4:1]/8h[4:1],2h[4:1]/7h[4:1],
{4}3/6,2h[4:1]/5,1,1/8,
{4}2/7,1/6h[4:1],5,3/6,
{8}4xh[2:1]/5xh[2:1],,,,,,,1x/8x,
{4},3x/6x,C1f/B2/B7,,
{8}1x/8x,,6x,5x/7x,,3x,2x/4x,,
{4}5/6,3/8,3/4,1/6,
{4}5/6h[4:1],1,3h[4:1]/4,8,
{8}4/6,,3x/8x,3x/8x,,1x/6x,1x/6x,,
{4}2h[2:1]/7,7,5,3/4,
{1}B1/C1f/B6,
{4}2/7h[2:1],2,4,5/6,
{1}C1f/B3/B8,
{4}4/6h[4:1],1,3h[4:1]/5,8,
{4}3/5h[4:1],8,4h[4:1]/6,1pp5[1:1]*qq5[1:1],
{1},
{4},,1/7,3>6[1:3]/5,
{1}C1xh[1:3],
{1},
{1},
{8},,,,1/8,1/8,1/8,2b/7b,
{1},
{1},
{1},
E
&inote_5=
(183){1},
{1},
{1}4-2[2:1]/5h[4:3],
{1}4-1[2:1]/5h[4:3],
{1}4-8[2:1]/5h[4:3],
{1}4-1[2:1]/5h[4:3],
{4}6h[1:2],,B5,B6,
{4}B7,B8,B1,B2,
{1}4w8[4:3],
{4},,3/5,4/6,
{1}2pp1[4:5]/7qq8[4:5],
{1},
{2}6,6,
{4}4/6,3<7[4:1]/5,,,
{2}2xh[4:1]/8xh[4:1],3h[4:1]/7h[4:1],
{4}4h[4:1]/6h[4:1],,5,3/8,
{2}2/4-6[8:1],2/4-7[8:1],
{4}2/4,5/7,3/6,1b/8b,
{8}2/5,,3/4,3h[2:1]/4,,1<5[8:3],,,
{4},2h[4:1],1h[4:1],8,
{8}4/7,,5/6,5/6h[2:1],,8>4[8:3],,,
{8},,7,5-2[8:1]*-8[8:1]/7,,,,,
{4}3-1[8:1],7-5[8:1],2-8[8:1],6-4[8:1],
{8}3,3,,1p4[8:1]/8<5[8:1],,,,,
{8}1/3,,5,6/8,,2x/7x,1b/8b,,
{4}3xh[4:11]/5x,5,5,5,
{4}4,4,4,4,
{4}2,1,8,7,
{2}C1/B7/B8,B1/C1/B2,
{4}4x/6xh[4:11],4,4,4,
{4}5,5,5,5,
{4}7,8,1,2,
{4}C1/B2/B7,,4/5,4/5,
{4}2h[4:1],4,6h[4:1],4,
{4}3h[4:1],5,7h[4:1],5,
{4}2h[4:1],4h[4:1],5h[4:1],7h[4:1],
{8}8,,1/8,1>4[8:1]/8<5[8:1],,,,,
{8}3h[8:3],,4,4,,2/5,2/5,,
{8}6h[8:3],,5,5,,4/7,4<8[4:1]*q1[4:1]/7,,
{8},,,2,3,,4/5,,
{8}2/7,,,6,7,1b/8b,,,
{8}6xh[4:5]/8x,,7,,5,5,,7,
{4}7,7,B4/B5,2x/7x,
{8}1x/3xh[4:5],,2,,4,4,,2,
{8},4,4,,2x/7x,,B4/B5,,
{8}6xh[4:5]/8x,,7,,7,,5,5,
{8},7,7,,2x/7x,2x/7x,,,
{4}5h[4:1],6h[4:1],7,1/8,
{4}4h[4:1],3h[4:1],2,1/8,
{2}4-8[8:1]/5h[4:1],4h[4:1]/5-1[8:1],
{8}2/7,,4,5,3,6,2,7,
{2}1-3[8:1]/8-4[8:1],1-5[8:1]/8-6[8:1],
{8}2x/7x,2xV41[4:1]/7xV58[4:1],,,,,2b/7b,,
{8}3-8[8:1]/5,,6,6-1[8:1],,3,3>6[4:1],,
{8}5h[8:3],,,4,3,2,1/8-4[8:1],,
{4}1-3[8:1],7-5[8:1],4-1[8:1]*-7[8:1],,
{8}5/8,,5/6,5q4[4:1]/6<3[4:1],,,,,
{4}5h[2:1],7,4h[2:1],2,
{4}6h[4:1],8h[4:1],1h[4:1],3,
{8}C1/B6/B7,,,,C1/B2/B3,,,1/7-5[8:1],
{16},,4,,4w8[8:1],,,,4x,C1f,,,,,,,
{8}1x/8x,,7,6/8,,2,1/3pp4[4:1]*V14[4:1],,
{8},,,2,1,8,7,,
{4}3/6-1[8:1],5,3/6-1[8:1],5,
{8}3/6-1[8:1],,4,4,,4/5,4>1[4:1]/5<8[4:1],,
{8},,,,2/7,2V48[4:1]/7V51[4:1],,,
{16},C1f,,,,,,,,,,,,,,,
{8}2x/4x,,5x/7x,,2/7,2V48[4:1]/7V51[4:1],2/7,,
{16},C1f,,,,,,,,,,,,,,,
{4}3h[4:1],5h[4:1],7h[4:1],1h[4:1],
{4}2-4[8:1],1-5[8:1],8-6[8:1],1>8[4:3],
{1},
{4}4/8,,2x/5x,4x/7x,
{2}1xh[2:3]/5x-2[8:1],5x-8[8:1],
{4}5x-7[8:1],,5,6,
{2}B3/B4/B5/B6,C1/B2/B7,
{8}1/8,,2x/7x,,3,6,4/5,,
{2}6h[1:1],B7/B8,
{2}3h[1:1],B1/B2,
{4}5h[4:1],6h[4:1],7h[1:1],,
{4}B4,C1,B8,,
{1}C1f/B2/B3/B6/B7,
{4}2V41[4:1]/7V58[4:1],,,2b/7b,
{8}5-8[8:1],,4,4>1[8:1],,5,5<8[8:1],,
{8},,,4/5,4/5,3/6,2/7,,
{8}1xh[4:3]/8x,,6,6,5,5,4,,
{8}2/7,,3/4,3>6[4:1]/4p5[4:1],,,,,
{4}4xh[2:1],2,5h[2:1],7,
{4}3h[4:1],1h[4:1],8h[4:1],6,
{8}C1/B2/B3,,,,C1/B6/B7,,,2-4[8:1]/8,
{24},,,5,,,5w1[8:1],,,,,,5x,C1f,,,,,,,,,,,
{8}1x/8x,,7,6/8,,2,1/3pp4[4:1]*V14[4:1],,
{8},,,2,1,8,7,,
{4}3-8[8:1]/6,4,3-8[8:1]/6,4,
{8}3-8[8:1]/6,,5,5,,4/5,4>1[4:1]/5<8[4:1],,
{8},,,,3/7,3V51[4:1]/7V51[4:1],,,
{16},C1f,,,,,,,,,,,,,,,
{8}2x/4x,,5x/7x,,2/6,2V48[4:1]/6V48[4:1],2/6,,
{16},C1f,,,,,,,,,,,,,,,
{4}6h[2:1],C1,3h[2:1],C1,
{4}8-2[8:1],4-6[8:1],7-3[8:1],5qq1[4:3],
{1}8h[4:3],
{4}2V48[4:1]/7,,5x-1[8:1],4x-8[8:1],
{16}5<4[4:11],C1f,,,,,,,,,,,,,,,
{1},
{1},
{8},,,,2/7,2/7,2/7,2b/7b,
{1},
{1},
{1},
E
