&title=L4TS:2018 (feat. あひる & KTA)
&wholebpm=190
&artist=Sprite Recordings
&des=サファ太
&shortid=815
&genre=ゲームバラエティ
&cabinet=SD
&version=maimai FiNALE
&chartconverter=Neskol
&lv_2=4
&des_2=-
&lv_3=7+
&des_3=-
&lv_4=11+
&des_4=玉子豆腐
&lv_5=13
&des_5=サファ太
&des_6=
&inote_2=
(190){1},
{1},
{1}6h[1:1],
{1},
{1}5h[1:1],
{1},
{1}4h[1:1],
{1},
{1}3h[1:1],
{1},
{1}3,
{1}3,
{1}4,
{1}4,
{1}5,
{1}5,
{1}6,
{1}5/6,
{2}4,4,
{4}4,4,4,,
{2}3,3,
{4}3,3,3,,
{2}2,2,
{4}2,2,2,,
{2}1,1,
{4}1,1,1/8,,
{2}8,8,
{4}8,8,8,,
{2}7,7,
{4}7,7,7,,
{2}6,6,
{4}6,6,6,,
{2}5,5,
{4}5,5,4/5,,
{1}5-8[4:3],
{1},
{1}1-4[4:3],
{1},
{1}3h[2:1],
{2}4,4/5,
{1}6h[2:1],
{2}5,4/5,
{1}4-1[4:3],
{1},
{1}8-5[4:3],
{1},
{2}6,6,
{2}5,4/5,
{2}3,3,
{2}4,4/5,
{4}5,5,5,,
{4}6,6,6,,
{4}7,7,7,,
{4}8,8,1/8,,
{1}1h[2:1]/8h[2:1],
{2}8,7/8,
{2}1,1/2,
{1}1b/8b,
{4}1,1,1,,
{4}2,2,2,,
{4}3,3,3,,
{4}4,4,4/5,,
{1}4h[2:1]/5h[2:1],
{2}4,3/4,
{2}5,5/6,
{1}4b/5b,
{1}4-1[4:3],
{1},
{1}8-5[4:3],
{1},
{1}6-3[4:3],
{1},
{1}2-7[4:3],
{1},
{1}6h[2:1],
{2}6,5/6,
{1}5h[2:1],
{2}5,4/5,
{1}4h[2:1],
{2}4,3/4,
{1}4h[2:1],
{2}4,4/5,
{1}4h[1:4]/5h[1:4],
{1},
{1},
{1},
{1},
{1},
{1},
E
&inote_3=
(190){1},
{1},
{1}3h[1:1],
{1}4h[1:1],
{1}5h[1:1],
{2}6,5/6,
{1}6<3[4:5],
{1},
{1}4h[1:1],
{2}5,3/6,
{1}6h[1:1],
{1}5h[1:1],
{1}4h[1:1],
{2}3,2/5,
{1}1>6[4:5],
{1},
{1}8z4[8:7],
{2},3/6,
{4}2b,2,3,3,
{4}4,4,4/5,,
{4}7,7,6,6,
{4}5,5,4/5,,
{4}3,3,4,4>8[2:1],
{1},
{4}6,6,5,5<1[2:1],
{1},
{4}3,3,4,4,
{4}5,6,4/7,,
{4}6,6,5,5,
{4}4,3,2/5,,
{4}7,7,8,8<4[2:1],
{1},
{4}2,2,1,1,
{4}1/8,1/8,2b/7b,,
{4}1/8,2,3,4,
{4}5,6,7/8,,
{4}1/8,7,6,5,
{4}4,3,1/2,,
{4}6,5,4/7,,
{4}3,4,2/5,,
{4}1/7,1/7,2/6,,
{4}3/5,3/5,4,4>7[1:1],
{1},
{2},5/6,
{4}3,3,2/4,,
{4}6,6,5/7,,
{4}4/5,4/5,3/6,,
{4}2,2,1,1-4[1:1]*-6[1:1],
{1},
{2},3b/7b,
{4}8,7,5/6,5/6,
{4}3/4,3/4,2/5,,
{4}1,2,3/4,3/4,
{4}5/6,5/6,7,8<3[1:1],
{1},
{4},,1/8,1/8,
{4}7,6,5<2[8:7],,
{1},
{4}3,4,5,6,
{4}7/8,7/8,1/6,,
{4}6,5,4,3,
{4}1/2,1/2,3,4>7[1:1],
{1},
{2},5/6,
{2}2h[4:1]/4h[4:1],5h[4:1]/7h[4:1],
{4}4h[4:1]/5h[4:1],,3/6,3bV14[2:3]/6bV85[2:3],
{1},
{1},
{2}2h[2:1],1,
{4}8,7,1/6,,
{2}7h[2:1],8,
{4}1,2,3/8,,
{1}5h[2:1]/6h[2:1],
{4}3/4,2/5,1/6,,
{4}2h[4:1]/4h[4:1],,2/4,1,
{4}1h[4:1]/8h[4:1],,1/8,7V51[1:1],
{1},
{4},2,2,2V48[8:9],
{1},
{1},
{2}7h[4:1]/8h[4:1],1h[4:1]/2h[4:1],
{4}1/8,2/7,3/6,5pp8[2:3],
{1},
{8},,,,,,,1pp4[2:3],
{1},
{1},
{1},
{1},
E
&inote_4=
(190){1},
{1},
{4}6h[4:3],5,5,5,
{4}3h[4:3],4,4,4,
{4}5h[4:3],4,4,4,
{4}2h[4:3],3,3,4,
{8}4,,3/4,3<2[8:9]/4,,,,,
{1},
{4}3,4,6,4/5,
{4}3/6,5,4,3,
{4}3h[4:3],4,4,4,
{4}6h[4:3],5,5,5,
{4}4h[4:3],5,5,5,
{4}7h[4:3],6,6,5,
{8}5,,5/6,5/6q3[8:5],,,,,
{2},4h[2:3],
{1}5h[1:1],
{2},7/8,
{2}1/2-5[8:1],7-4[8:1]/8,
{2}1/2-5[8:1],7-4[8:1]/8,
{4}1/2,7-5[16:3]/8-4[16:3],,,
{8}2-5[8:1],,7-4[8:1],,1-5[8:1],,8,8,
{4},7-3[8:1],2-6[8:1],5<3[4:3]*q4[4:3],
{1},
{4}2-5[8:1],8-3[8:1],1-6[8:1],7,
{8}4,,4/5,4h[8:3]/5h[8:3],,,,,
{4}7/8,1/2-5[8:1],,7-4[8:1]/8,
{4},1-5[16:3]/2-4[16:3],,,
{2}7-4[8:1]/8,1/2-5[8:1],
{8}7-4[8:1],,2-5[8:1],,8-4[8:1],,1,1,
{4},2-6[8:1],7-3[8:1],4>6[4:3]*p5[4:3],
{1},
{4}7-4[8:1],1-5[8:1],8-4[8:1],2,
{4}3b/6b,,1,1>8[1:1],
{1}8b,
{8},,6,6,5,,3/8,,
{8}1/7h[4:1],,5,5,,4/5,,2/4,
{8},1,1,,2/4,,3/5,,
{8}4/6h[4:1],,3,3/4,,6,5/6,,
{4}8-4[8:1],2-5[8:1],7-4[8:1],3,
{8}1/2,,1,2/8,,3>8[4:1]/7,,,
{4},,8,8<1[1:1],
{1}1b,
{8},,3,3,4,,1/6,,
{8}2h[4:1]/8,,4,4,,4/5,,5/7,
{8},8,8,,5/7,,4/6,,
{8}3h[4:1]/5,,6,5/6,,3,3/4,,
{4}1-5[8:1],7-4[8:1],2-5[8:1],6>2[8:3],
{8},,,,,1w5[2:1],,,
{4},,,3/7,
{8}1b/6b,,7/8,1/6,,3/8,,5/6,
{8},3-7[4:1]/8-5[4:1],,,,,,1/6,
{8}1/6,,1/2,3/8,,4/5,,7h[8:3],
{4},6h[4:1],5h[4:1],4,
{8}3/4,,2,,1/2,,3/8,3/8,
{8},1/7,1/7,,6h[4:1],,5,,
{8}4b/7b,,2,2b/5b,,8,4b/8b,,
{8}3,4,2/5,,6,5,4/7,,
{8}3b/8b,,1/2,3/8,,1/6,,3/4,
{8},1-4[4:1]/6-2[4:1],,,,,,3/8,
{8}3/8,,7/8,1/6,,4/5,,2h[8:3],
{4},3h[4:1],4h[4:1],5,
{8}5/6,,7,,7/8,,1/6,1/6,
{8},2/8,2/8,,3h[4:1],,4,,
{4}6h[4:1]/8,4,1/3h[4:1],5,
{8}2b/7b,,6,5b/7b,,3,2b/4b,,
{1}1b>7[2:3]/5b,
{1},
{8}8h[8:3],,,7h[8:3],,,6h[8:3],,
{8},5h[8:3],,,4,,3/6,,
{8}2/7h[8:3],,,6h[8:3],,,5h[8:3],,
{8},4h[8:3],,,3,,2,,
{8}1h[8:3],,,2h[8:3],,,3h[8:3],,
{8},4h[8:3],,,5,,3/6,,
{2}7-5[8:1]/8-4[8:1],1-5[8:1]/2-4[8:1],
{4}7-5[8:1]/8-4[8:1],,1/2,5q4[4:3]/6<3[4:3],
{1},
{4}1-5[8:1]/2-4[8:1],,7/8,3>6[1:1]/4q5[1:1],
{1},
{4},,7/8,3,
{4}1/2,6,7/8,4,
{4}1/2,3/4,5/6,7/8<1[2:11],
{1},
{1},
{1},
{1},
{1},
{1},
{1},
{1},
E
&inote_5=
(190){1},
{1},
{8}3h[1:1]/6,,4,4,,5,5,,
{8}6h[1:1],,5,5,,4,4,,
{8}3h[1:1],,4,4,,5,5,,
{8}6h[1:1],,5,5,,4,4,,
{8}2>8[4:5],,5,5h[8:9],,,,,
{1},
{1}1s5[2:1]/2h[4:3],
{1}2z6[2:1]/5h[4:3],
{8}4/7h[1:1],,5,5,,6,6,,
{8}4h[1:1],,6,6,,5,5,,
{8}6h[1:1],,4,4,,5,5,,
{8}3h[1:1],,5,5,,4,4,,
{8}6<3[1:1],,5,5,,,,,
{2},4h[2:1],
{4}5p4[2:1],,,1-5[8:1],
{1}8h[1:1],
{4}1b<6[8:1],1-5[8:1]/3,1/5,8>3[8:1],
{8}6/8-4[8:1],,4/8,,3,,3/4,2>5[8:1]/5,
{8},7,7h[4:1],,8,,1/2-5[8:1]*-6[8:1],,
{8},,7-3[8:1]*-4[8:1]/8,,,,2/5,2/5,
{4},8<5[8:1]*>3[8:1],8,8pp4[2:1]*qq4[2:1],
{8}8b,,,,,,2/6,4/8,
{4},2/7-3[8:1],2-6[8:1]/7,2/7,
{8}2/7,,1/8,2b/7b,,6,5,4/7,
{4},2-6[8:1]/7,2/8-4[8:1],2-6[8:1]/8,
{8}1-5[8:1]/2,,1/2>5[8:1],,2/6,,7/8,1/6,
{4},2/7-3[8:1],1-5[8:1]/7,1/7-3[8:1],
{8}7/8-4[8:1],,7<4[8:1]/8,,3/7,,1/2,3b/8b,
{4},1<6[8:1]*>4[8:1],1,1pp5[2:1]*qq5[2:1],
{4}1b,,,3/6,
{4}8-4[8:1],8<5[8:1]*>3[8:1],8w4[8:1],8,
{4}1b/7b,,,2/7<2[4:1],
{8}1,,,1/8,,3,2/5,,
{8}7-3[8:1],7,2<4[4:1],,4,,8,1,
{8}2/4,,8,5-1[8:1]/7,,8h[4:1],,1,
{4}2-6[8:1],7>5[4:1],5,1,
{8}2/7,,4,5>2[8:1]/6,,8,8-4[8:1],,
{4}1<5[4:1],5>1[4:1],1,8,
{8}7/8>3[8:1],,6,5-1[8:1],,2,,2,
{8}8,1/8,3/6,,4/5,,2>7[4:1]/7,,
{8}1,,,1/8,,6,4/7,,
{8}3-7[8:1],3,6>8[4:1],,8,,4,5,
{8}6/8,,4,1-5[8:1]/3,,4h[4:1],,5,
{4}6-2[8:1],3<1[4:1],1,5,
{8}3/6,,1,7/8>3[8:1],,5,5-1[8:1],,
{4}4<8[4:1],8>4[4:1],4,5,
{8}7-3[8:1],,5-1[8:1],,8,8,1,3/6,
{16},,1b/8b,,1b/8b,,,,1,5,2,6,3,7,4,8,
{8}5>2[8:1],,8,8-5[8:1],,3-8[8:1]/8,,3/4,
{8},1/7,2/6,3/5,,2/8,3/7,4,
{8}5<8[8:1],,2,2-6[8:1],,2/8-4[8:1],,1h[4:1]/8,
{8},5,5-2[8:1]*-8[8:1],,,,3b/7b,,
{8}2>5[8:1],7,2,7,3<6[8:1],8,3,8,
{4}4-8[8:1],4<7[8:1],4>1[8:1],4,
{8}1b/6b,,5/6,3b/8b,,3/4,1bw5[8:1]/6b,,
{16},,,,3b/7b,,,,8,4,7,3,6,2,5,1,
{8}4<7[8:1],,1,1-4[8:1],,1/6-1[8:1],,5/6,
{8},2/8,3/7,4/6,,1/7,2/6,5,
{8}4>1[8:1],,7,7-3[8:1],,1-5[8:1]/7,,1/8h[4:1],
{8},4,4w8[8:1],,,,2b/6b,,
{8}7-3[8:1],1,7,1,2-6[8:1],8,2,8,
{4}7<4[4:1],4-8[4:1],8>3[4:1],4,
{4}5>1[4:1],7,4<8[4:1],2,
{24}1,,,1,2,3,4/6,,,2b/7b,,,,,,1/8,,,3/6,,,,,,
{4}2/7,3>8[4:1],7,6>3[4:1],
{4}8,1<6[4:1],5,4q8[4:1],
{4}3,4p8[4:1],5,4<8[4:1],
{4}3,4,2/6,1>4[4:1]/8,
{4}7,6<1[4:1],2,3<6[4:1],
{4}1,8>3[4:1],4,5p1[4:1],
{4}6,5q1[4:1],4,5>1[4:1],
{4}6,5,3/7,1-4[8:1]*-6[8:1]/8,
{4}1b,1/8-3[8:1]*-5[8:1],8b,4w8[8:1]/5,
{4}4b,4/5w1[8:1],5b,4p5[4:3]/5<4[4:3],
{1}4b/5b,
{4}1/5<8[8:1],5b>2[8:1],5b-1[8:1],5bpp1[4:3]*qq1[4:3],
{1},
{4}1/6p8[4:1],3,2p4[4:1],8,
{8}7,1/5h[4:1],,2,1/3,4h[4:1]/8,,5,
{4}5<8[8:1],5>2[8:1],5-1[8:1],5<4[8:11],
{1},
{32},,,,,,,,,,,,,,,,,,,,,4>5[16:23],,,,,,,,8h[16:23],,,
{1},
{8},,,,,2h[16:17]/7h[8:17],,,
{1},
{1},
{1},
{1},
E
