&title=Good Bye, Mr. Jack
&wholebpm=180
&artist=sasakure.UK
&des=Jack
&shortid=836
&genre=ゲームバラエティ
&cabinet=SD
&version=maimai FiNALE
&chartconverter=Neskol
&lv_2=4
&des_2=-
&lv_3=9
&des_3=-
&lv_4=12+
&des_4=Jack
&lv_5=13+
&des_5=Jack
&des_6=
&inote_2=
(180){1},
{1},
{1}1,
{1}1,
{1}8,
{1}8,
{2}1,1,
{2}2,2,
{2}3,3,
{1}4/5,
{4}5,5,5,,
{4}5,5,5,,
{4}6,6,6,,
{4}6,6,6,,
{4}7,7,7,,
{4}7,7,7,,
{4}8,8,8,,
{4}1/8,1/8,1b/8b,,
{1}1-4[4:3],
{1},
{1}8-5[4:3],
{1},
{1}2-5[4:3],
{1},
{1}7-4[4:3],
{1},
{1}4h[2:1],
{1}4h[2:1],
{1}5h[2:1],
{1}5h[2:1],
{1}4h[2:1],
{1}5h[2:1],
{1}4h[2:1]/5h[2:1],
{1}4b/5b,
{2}3,3,
{1}3,
{2}2,2,
{1}2,
{2}1,1,
{1}1,
{2}8,8,
{1}8,
{2}7,7,
{1}7h[2:1],
{2}6,6,
{1}6h[2:1],
{2}5,5,
{1}5h[2:1],
{2}4,4,
{1}4/5,
{1}4-1[4:3]/5-8[4:3],
{1},
{4},8h[2:1],,,
{4},1/8,,,
{4}1/8,,,1,
{4}1,1,,8,
{4}8,8,,1-4[4:3],
{1},
{1},
{4},8-5[4:3],,,
{1},
{1},
{1}1h[1:1],
{1},
{1}8h[1:1],
{1},
{2}1,1,
{2}2,2,
{2}3,3,
{1}4/5,
{4}5,5,5,,
{4}5,5,5,,
{4}6,6,6,,
{4}6,5,6,,
{4}7,7,7,,
{4}7,7,7,,
{4}8,8,8,,
{4}1,8,1,,
{1}7-3[4:3],
{1},
{1}2-6[4:3],
{1},
{1}8-4[4:3],
{1},
{1}1-5[4:3],
{8},,,,,,,3/4,
{8},,,,,,,5/6,
{8},,,,,,,3/4,
{1},
{4}1,1,1,,
{4}2,2,2,,
{4}3,3,3,,
{4}4,4,4,,
{4}5,5,5,,
{4}6,6,6,,
{4}7,7,7,,
{4}8,8,8,,
{4}7,7,7/8,,
{4}6,6,5/6,,
{4}5,5,4/5,,
{4}4,5,4,,
{4}3,3,3/4,,
{4}2,2,1/2,,
{4}1,1,1/8,,
{1}8-4[4:3],
{1},
{1},
{1},
E
&inote_3=
(180){1},
{1},
{2}3h[2:1],4h[2:1],
{2}5h[2:1],6h[2:1],
{2}5h[2:1],4h[2:1],
{4}3h[2:1],,6,4/5,
{2}6h[2:1],5h[2:1],
{2}4h[2:1],3h[2:1],
{2}4h[2:1],5h[2:1],
{4}6h[2:1],,3,4/5,
{4}3,3,3,4/5,
{4}6,6,4/5,,
{4}3,2,3,4/5,
{4}6,7<4[8:3],,,
{4}2,3,4,5/6,
{4}7,6,4/5,,
{4}3,4,5,6,
{1}4>1[8:3]/5<8[8:3],
{4}4b/5b,3,2,4,
{4}5/6,7,6/8,,
{4}3/4,2,3/4,5pp4[8:5],
{1},
{4}4/5,6,7,5,
{4}3/4,2,1/3,,
{4}5/6,7,5/6,4qq5[8:5],
{1},
{4}4/5,3/4,2,4,
{4}3/5,4/6,5/7,,
{4}3,5,4,6<3[8:5],
{1},
{4}4/5,5/6,7,5,
{4}4/6,3/5,2/4,,
{4}5/7,4,3,2,
{4}1h[4:3],,,8,
{1}2>5[8:3]/7,
{1}7-3[8:3],
{1}1<6[8:3],
{2}5/6,3/4,
{1}2/7<4[8:3],
{1}2-6[8:3],
{1}8>3[8:3],
{2}3/4,5/6,
{4}2,3,4,5,
{2}3h[4:1]/4h[4:1],5h[4:1]/6h[4:1],
{4}4,5,6,7,
{2}8-6[4:1],1-5[4:1],
{2}8-4[4:1],1-3[4:1],
{4}5,6,7,8,
{2}1h[4:1]/2h[4:1],7h[4:1]/8h[4:1],
{4}1/8,2/7,3b/6b,,
{8}1h[8:5],,,,,8h[4:3],,,
{8},,,1-5[8:3],,,,,
{4},2/7,,,
{4},1h[8:3]/2h[8:3],,,
{4}7h[8:3]/8h[8:3],,,1/8,
{4}2,3,4/5,6,
{4}7,1/8,2,3,
{8}4h[8:3]/5h[8:3],,,,,,3,3,
{8},2,2h[8:3],,,,,1h[8:3],
{8},,,,8,8,,7,
{8}7h[8:3],,,,,4/5,,3/6,
{8},2/7,,1/8,,,,,
{4}3h[2:1],,4,5,
{4}6h[2:1],,5,4,
{2}3h[4:1],4h[4:1],
{2}5h[4:1],4/6,
{4}6h[2:1],,5,4,
{4}3h[2:1],,4,5,
{2}6h[4:1],5h[4:1],
{2}4h[4:1],3/5,
{4}1,1,8,8,
{4}7,7,6/8,,
{4}7,6,5,4,
{4}3,4,5/6,,
{4}8,8,1,1,
{4}2,2,1/3,,
{4}2,3,4,5,
{4}6,5,3/4,,
{4}5/6,5/6,4/7,,
{4}3/4,3/4,2/5,,
{4}6,6,5,5,
{4}4,4,3,3<8[4:3],
{1},
{4}5,5,6>1[4:3],,
{1},
{4}3,4,3,2/5,
{4}6,5,6,4/7,
{4}3,4,3,2/5,
{4}1,1-4[4:1]/8-5[4:1],,,
{4}4/5,3,2h[4:1]/4h[4:1],,
{4}4/5,6,5h[4:1]/7h[4:1],,
{4}4/5,3,2h[4:1]/4h[4:1],,
{4}3/6,2/7,1/8,,
{4}4/5,6,5h[4:1]/7h[4:1],,
{4}4/5,3,2h[4:1]/4h[4:1],,
{4}4/5,6,5h[4:1]/7h[4:1],,
{4}2/4,5/7,1/8,,
{4}3,4,3,2/5,
{4}6,5,6,4/7,
{4}8,1,8,2/7,
{4}3/6,4-1[4:1]/5-8[4:1],,,
{4}2,1,2,3/8,
{4}7,8,7,1/6,
{4}5,4,5,3/6,
{4}2/7,1>4[8:3]/8<5[8:3],,,
{1},
{1},
{1},
E
&inote_4=
(180){1},
{1},
{8}4h[1:1],,,5,,,5,,
{8}5h[1:1],,,6,,,6,,
{8}6h[1:1],,,7,,,7,,
{8}7h[4:3],,,8,,,8,,
{8}4h[1:1],,,3,,,3,,
{8}3h[1:1],,,2,,,2,,
{8}2h[4:3],,,1,,,1qq5[4:3],,
{1},
{8}4,4h[2:5],,6,,5,,7,
{8},5,,6,,5,,3,
{8},5,,6,,5,,2/7,
{8},6,5/7,,3,3,2/4,,
{8}5,5h[2:5],,3,,4,,2,
{8},4,,3,,4,,6,
{8},4,,3,,4,,2/7,
{1}2h[4:3]/7h[4:3],
{8}3/6,,3,,3,2/5,3,,
{8}3/6,,3,4,3,2/5h[4:1],,4,
{8}3/6,5,4,3,4,5,6,7p5[2:1],
{4},,,4,
{8}3/6,3,5,5h[4:1],,2,3,4h[4:1],
{8},7,6,5,4,3/6,,,
{8}3,3,4,4,5,5,6,6<3[8:3],
{8},,,,4,4,5,5,
{8}3/6,,6,,6,4/7,6,,
{8}3/6,,6,4,6,4h[4:1]/7,,5,
{8}3/6,4,5,6,5,4,3,2q4[2:1],
{4},,,5,
{8}3/6,4,5,7h[4:1],,5,4,2h[4:1],
{8},4,5,7,3/6,3/6,,,
{8}6,6,5,5,4,4,3,3h[4:1],
{8},6,2/7,1/8,,4b/5b,,,
{16}2,,2,,4,,4,,3h[16:3],,,4,,,,,
{8}3,3,4,4,2>5[4:1],,,,
{16}7,,7,,5,,5,,6h[16:3],,,5,,,,,
{8}6,6,5,5,7<4[4:1],,,,
{16}3,,3,,4,,4,,2h[16:3],,,3,,,,,
{8}3,3,4,4,2>5[4:1],,,,
{16}6,,6,,5,,5,,7h[16:3],,,6,,,,,
{8}6,6,5,5,7<4[4:1],,,,
{8}1b,,,3,3,5,4,6h[2:1],
{16},,,,,,5,6,4h[8:3],,,,,,5h[4:1],,
{8},4,5,3h[4:1],,6,3/6,,
{4}2>5[8:1],6,7p3[8:1],2,
{4}1-5[8:1],6,7p4[2:1],3,
{8},,,3h[4:1],,4,5,6,
{8}7,6,3,4,6,5,2,3pp6[8:5],
{1},
{16}7/8,,,1/6,,,2/5,,,,4/7,,,3/8,,,
{16}1/2-6[8:1],,,,,,8,,,,4/5,,,3/6,,,
{1}2qq5[4:3]/7pp4[4:3],
{8},,2-5[8:1]/6h[4:1],,,6,,,
{16}3h[4:1]/7-4[8:1],,,,,,3,,,,,,1/2h[16:3],,,3h[16:3],
{8},4,,5/6,,3/4,,1/8,
{16}1/8,,,,5/6h[16:3],,,7h[16:3],,,8,,,,1/2,,
{8},7/8,,4/5,4/5,,2/4,2/4,
{16},,5/7,,5/7h[16:3],,,6h[16:3],,,5,,,,3h[16:3]/4,,
{16},2h[16:3],,,1,,,,4/5,,4/5,,,,3/6,,
{16}3/6,,,2/7,,,1>4[8:1]/8,,,,8<5[8:1],,,,1>4[8:1],,
{8},8<5[8:1],,1s5[4:1],,,,,
{8}7h[8:3],,,6,,6,,5,
{8},5,,6,,6,,5/7h[4:1],
{8},,,4/6h[4:1],,,,3/5h[4:1],
{8},,,2/4h[4:1],,3,3,,
{8}2h[8:3],,,3,,3,,4,
{8},4,,3,,3,,2h[4:1]/4,
{8},,,3h[4:1]/5,,,,4h[4:1]/6,
{8},,,5h[4:1]/7,,6,6,,
{8}3/6,,3/4,4,3,5,3,6,
{8}3,7,7,5,,2,2,4,
{16},,6,,6,,4,5,4,,5,,6,,7,,
{8},7,6,5h[8:3],,,4,5,
{8}3/6,,5/6,5,6,4,6,3,
{8}6,2,2,4,,7,7,5,
{16},,3,,3,,5,4,5,,4,,3,,2,,
{8},2,3,4,,4/5,3/6,2/7,
{16}1,8,,2/7,,,1,8,,2/7,,,1,8,,2,
{16}7,,3,6,,4q5[16:5],5,,,,,,,,,,
{8}7,8,1,2/7,,4/5,4/5,,
{8}2/4,,5/7,,1/8,,3/6,3/6,
{48},,,,1/8,,,,,,,,2/7,,,,,,,,3/6,,,,,,,,,,,,,3/6,,,,,,,,,1/8,,,,,,
{4}1>4[8:1]/8,8<5[8:1],1>4[8:1],8z4[4:1],
{8},,,1s5[4:1],,,,6h[1:1],
{8},5,,7,,5,,3h[1:1],
{8},4,,2,,4,,7h[1:1],
{8},6,,8,,6,,2h[4:3],
{8},3,,1<5[4:1],,,,,
{16}3,,3h[16:3],,,4h[16:3],,,5h[16:3],,,6h[16:3],,,8,,
{16}6,,6h[16:3],,,5h[16:3],,,4h[16:3],,,3h[16:3],,,1,,
{16}3,,3h[16:3],,,4h[16:3],,,5h[16:3],,,6h[16:3],,,8,,
{16},,1/3,,,1/3,,,4/5,,,3/6,,,1/8,,
{16}7,,7h[16:3],,,5h[16:3],,,4h[16:3],,,2h[16:3],,,1,,
{16}2,,2h[16:3],,,4h[16:3],,,5h[16:3],,,7h[16:3],,,8,,
{16}7,,7h[16:3],,,5h[16:3],,,4h[16:3],,,2h[16:3],,,1,,
{16},,7/8,,,7/8,,,3/6,,,2/7,,,1/8,,
{4}1b/8-4[8:1],2-5[8:1],6-1[8:1],3,
{4}2-6[8:1]/8b,8-4[8:1],3-8[8:1],6,
{4}1b/7-4[8:1],2-6[8:1],8-4[8:1],3-8[8:1],
{4}7-4[8:1],1-5[8:1],6-1[8:1],1b,
{8}3,4,2,6,5,6,4/7,,
{8}6,5,7,3,4,3,2/5,,
{8}7,8,7,2,1,2,3/8,,
{16}7,,7,,2,,2,,3/4b,,,5b/6,,,1b/8b,,
{1},
{1},
{1},
E
&inote_5=
(180){1},
{1},
{16}4h[8:7]/5,,6,,,6,,,6,,,5,,,6h[1:1],,
{16},,3,,,3,,,3,,,5,,,2h[1:1],,
{16},,7,,,7,,,7,,,4,,,8h[4:1],,
{16},,1,,,1/8,,,5/7,,,2/4,,,4/5h[1:1],,
{16},,3,,,3,,,3,,,4,,,3h[1:1],,
{16},,6,,,6,,,6,,,4,,,7h[1:1],,
{16},,2,,,2,,,2,,,5,,,1h[4:1],,
{16},,8,,,1/8,,,2/4,,,5/7,,,4/5,,
{16}3,,4,,2/5,,6,,6h[16:3],,,5,6,,5,,
{16}4>8[4:1]/6,,5,,7,,7,,6h[16:3],,,5,6,,5,,
{16}3,,4,,2/5,,6,,6h[16:3],,,5,6,,5,,
{16}4/7,,3/6,,2h[4:1]/5,,4,,4h[16:3],,,3,4,,2/5,,
{16}6,,5,,4/7,,3,,3h[16:3],,,4,3,,4,,
{16}3/5<1[4:1],,4,,2,,2,,3h[16:3],,,4,3,,4,,
{8}2/5,2/5h[4:1],3,4,3/6,2/7,1-5[8:1]/8-4[8:1],,
{1}1b/8b,
{8}3/6h[2:1],,4,,5,6,4/7-4[8:1],,
{8}3h[4:1]/7,,5,4,3,2>5[8:1]/5,,2,
{8}7,8,1/6,2,1,3/8,7,7h[4:1],
{16},,5,6,4,5,3,4,2h[4:1],,3,,4,,2/5,,
{8},7-4[8:1],8,7,,2-6[8:1],1,2,
{16},,7,,8-4[8:1],,1-3[8:1],,8,,1,,,,6,5,
{8}6,4/7,3,2/5,6,4/7,3/6,2h[4:1]/5,
{16},,4,3,5,4,6,5,7,,8,,1,,2,,
{8}3h[4:1]/5,,4,3,4,3,2-5[8:1]/5,,
{8}2/6h[4:1],,4,5,6,4/7<4[8:1],,7,
{8}2,1,3/8,7,8,1/6,2,2h[4:1],
{16},,4,3,5,4,6,5,7h[4:1],,6,,5,,4/7,,
{8},2-5[8:1],1,2,,7-3[8:1],8,7,
{16},,2,,1-5[8:1],,8-6[8:1],,1,,8,,,,3,4,
{16}3,,2/5,,6,,4/7,,3,,2/5,,6,,4/7,4,
{8}5bw1[4:1],,,,,3/7,,,
{24}6h[1:1],,,,,,,,,5,,,,,,,,,5,,,2,3,4,
{8}5h[4:3],,,4,,,4h[4:1],,
{24}3h[1:1],,,,,,,,,4,,,,,,,,,4,,,7,6,5,
{8}4h[4:3],,,5,,,5h[4:1],,
{24}7h[1:1],,,,,,,,,6,,,,,,,,,6,,,2,3,4,
{8}5h[4:3],,,4,,,4h[4:1],,
{24}2h[1:1],,,,,,,,,3,,,,,,,,,3,,,7,6,5,
{8}4h[4:3],,,5,,,5h[4:1],,
{16}7b,,,6,5,,4/7h[8:1],,6h[8:1],,5h[8:1],,4h[8:1],,3h[8:1],,
{16}2h[16:3],,,1,2,,7,8,7,,1/6<1[8:1],,2,,3h[4:1],,
{16},,4,3,4,,2/6h[4:1],,,,5,6,5,,3/7,,
{16}2,4,2,4,3,4,3,4,2,4,2,4,3,4,3,4,
{16}2,4,2,4,3,5,3,5,4,6,4,6,5,7,5,7,
{8}6>1[4:1],,8,8h[4:1],,1,8,7,
{8}2/6,3,4/7,6,3/5,2,1-5[8:1],8,
{24}1/7-4[8:1],,,,,,2>5[8:1]/7,,,,,,2/5,6,7,8,1,2,3b,,,,,,
{16}7/8,,,1-5[8:1]/2,,,1/8,,,,4/6,,,3/5p4[16:5],,,
{16}4,,,,,,1,,,,2/4,,,5/7,,,
{4}1pp4[8:7]/8qq5[8:7],1/8,,,
{8},,2V48[4:1]/7,,,1,,,
{16}2/7V51[4:1],,,,,,8,,,,,,2h[8:1]/4h[8:1],,,2h[8:1]/4h[8:1],
{8},2-4[8:1]/4-8[8:1],,2/4,,7-4[8:1],,1,
{16}1,,,,5h[8:1]/7h[8:1],,,5h[8:1]/7h[8:1],,,5-1[8:1]/7-5[8:1],,,,5/7,,
{8},2-5[8:1],,2/6,7-3[8:1],,2/7,1-5[8:1],
{16},,1/7,,8h[8:1],,,1h[8:1]/7h[8:1],,,2/6,,,,4h[8:1],,
{16},3h[8:1]/5h[8:1],,,2-6[8:1]/6,,,,2/7,,8-4[8:1],,,,2/8,,
{16}1h[8:1],,,2h[8:1]/8h[8:1],,,3-5[8:1]/7,,,,3/7-4[8:1],,,,2-6[8:1]/7,,
{8},2/8-4[8:1],,4V28[4:1]*V68[4:1]/8,,,,,
{8}5h[8:15],,,,,,,4,
{8},4>1[4:1],,,,,,3h[8:17],
{8},,,,,,,5,
{8},5<8[4:1],,,,,,,
{8}7h[8:15],,,,,,,3,
{8},3<6[4:1],,,,,,1h[2:3],
{8},,,4,,4,,5,
{8},5-8[8:1],,,,3,4,5,
{8}2h[4:1]/6h[4:1],,,2/6-3[8:1],,2-5[8:1],,7h[4:1],
{8},6,7,2/6,,5,6,4/7h[4:1],
{16},,5,,7,,6,5,6,,4/7p3[8:1],,3,,2,,
{8},2>6[4:1]/5,6,7h[8:3],,,1,2,
{8}3h[4:1]/7h[4:1],,,3-6[8:1]/7,,7-4[8:1],,2h[4:1],
{8},3,2,3h[4:1]/7,,4,3,2h[4:1]/5,
{16},,4,,2,,3,4,3,,2q6[8:1]/5,,6,,7,,
{8},4/7<4[8:1],3,2h[4:1],,1,3/8,4/7,
{16}6,5,,3,4,,7,5,,2,4,,8,1,,3,
{48}4,,,3,,,4,,,3,,,4,,,3,,,2,,,1,,,8,,,7,,,6,,,5,,,4,,,,4,,,,4,,,,
{16}6,7,8,1,2,3,4/5,,,,2/7,,2/7,6,5,4,
{16}3,2,7,6,5,4,3,2,7,6,5,4,3,2,1/8<5[8:1],,
{16},,8,,3,,,1>4[8:1]/8,,,,1,,,5,4,
{16}6,3,6,3,7,2,7,2,8,7,6,1,2,3,4-8[8:1]/5-1[8:1],,
{8},,,1>4[8:1]/8<5[8:1],,,,2/7h[1:1],
{16},,1,2,3,4,5,,5,4,3,2,1,,2h[1:1],,
{16},,8,7,6,5,4,,4,5,6,7,8,,6h[1:1],,
{16},,1,2,3,4,5,,5,4,3,2,1,,3h[2:1],,
{16},,8,7,6,5,4,3,2,1,8,7,3/6,,,,
{16}3/4,,4/5,,6,5,,,1/6h[16:3],,,5,6,,4/7,,
{16}7<4[8:1]/8,,1,,7,8,,,3h[16:3],,,4,3,,2/5,,
{16}5/6,,4/5,,3,4,,,3h[16:3]/8,,,4,3,,2>5[8:1]/5,,
{16},,2/6h[16:3],,,8,,,2h[16:3]/4,,,8,,,1/7,,
{16}5/6,,4/5,,3,4,,,3h[16:3]/8,,,4,3,,2/5,,
{16}1/2>5[8:1],,8,,2,1,,,6h[16:3],,,5,6,,4/7,,
{16}3/4,,4/5,,6,5,,,1/6h[16:3],,,5,6,,4/7<4[8:1],,
{16},,3h[16:3]/7,,,1,,,5/7h[16:3],,,1,,,3/8,,
{16}1/2-5[8:1],,8,,2,1,,6,5,,7,8,7,,1/6,,
{16}7-4[8:1]/8,,1,,7,8,,3,4,,2,1,2,,3/8,,
{16}1/2>5[8:1],,8,,2,1,,6,5,,7,8,7,,1/6,,
{16}7<4[8:1]/8,,1,,7,8,,3,4,,2,1,2,,3/8,,
{16}7/8,,1/8,,2,1,2,,7-4[8:1],8,6,8,7,,3,,
{16}1/2,,1/8,,7,8,7,,2-5[8:1],1,3,1,2,,6,,
{16}7/8,,1/2,,3,4,3,,6-1[8:1],5,7,5,6,,2,,
{16}3,6,2,7,1,8,1,,2b/7b,,,5b/8b,,,1b-4[8:15]/4b<6[8:15],,
{1},
{1},
{1},
{1},
{1},
E
