&title=あ・え・い・う・え・お・あお!!
&wholebpm=145
&artist=劇団ひととせ「ひなこのーと」
&des=玉子豆腐
&shortid=669
&genre=POPSアニメ
&cabinet=SD
&version=maimai MiLK
&chartconverter=Neskol
&lv_2=4
&des_2=-
&lv_3=8
&des_3=-
&lv_4=10+
&des_4=rioN
&lv_5=12+
&des_5=玉子豆腐
&des_6=
&inote_2=
(145){1},
{2}1,1,
{4}8,8,8,8,
{1}1h[2:1],
{1}2h[2:1],
{1}3h[2:1],
{4}4,4,4,,
{4}5,5,5,,
{4}4/5,,6,6,
{4}6,,7,7,
{4}7,,8,8,
{4}8,8,,1,
{4}1,1b/8b,,8h[2:1],
{4},,,7h[2:1],
{4},,,6,
{4}6,5/6,,4,
{1}4h[2:1],
{1}3h[2:1],
{4}2,2,1/2,,
{1}8h[4:3],
{4},1-5[4:3],,,
{4},,,8-4[4:3],
{1},
{4},,,1,
{4},1,,2,
{4},2,,3h[2:1],
{2},4h[2:1],
{4},5,,5,
{4},6,,6,
{4},7,,7,
{4},8,,8,
{4},1,,1,
{4},1/8,1/8,1/8,
{4}1b/8b,7,7,7,
{4},6,6,5/6,
{4},5,5,5,
{4},4,5,4/5,
{4},3,3,3,
{4},2,2,1/2,
{4},1,1,1,
{4},8,1,1/8,
{4},7,7,7/8,
{4},2,2,1/2,
{4},1/8,,1/8,
{4},1/8,1/8,1h[1:1]/8h[1:1],
{1},
{4},1,2,3,
{4},4,5,4/5,
{4},5,6,7,
{4}8,,1,8,
{2}1/8,8h[2:1],
{4},1h[2:1],,,
{1}1b/8b,
{1},
{1},
{1},
E
&inote_3=
(145){1},
{2}4h[4:1]/5h[4:1],2h[4:1]/7h[4:1],
{4}1/2,7/8,1/2,7b/8b,
{4}2h[4:1]/4h[4:1],,3,3,
{4}5h[4:1]/7h[4:1],,6,6,
{4}3,3/4,6,5/6,
{4}3,2/4,6,5/7,
{4}3/4,5/6,4-1[4:1]/5-8[4:1],,
{4},2b/7b,5/6,5/6,
{4}4/7,,3/4,3/4,
{4}2-6[4:1]/5,,,1/8,
{4}1/8,2/7,,1-4[4:1]/8-5[4:1],
{4},,3b/6b,3,
{4}3,2/4,,6,
{4}6,5/7,,3h[4:1],
{4}4,6h[4:1],5,4/5,
{4}2,2,1/3,,
{4}7,7,6/8,,
{4}2h[4:1],1,7h[4:1],8,
{4}1/8,2/7,3/6,4/5,
{4},3-6[4:1],,,
{4}7-2[4:1],,,1-4[4:1],
{2},5-8[4:1],
{4},1b,,6,
{4}5/6,6,5/6,3,
{4}3/4,3,3/4,7h[2:1],
{4}1,8,2h[2:1],8,
{1}1<5[8:3],
{4}4/5,1h[4:1]/2h[4:1],,7h[4:1]/8h[4:1],
{4},1>4[8:3]/8<5[8:3],,,
{4},5h[4:1]/7h[4:1],,2h[4:1]/4h[4:1],
{4},4/5,4/5,2h[4:1]/7h[4:1],
{4},7/8,1/2,7/8,
{4}1b/2b,5h[4:1]/7h[4:1],,6,
{4}5/7,2h[4:1]/4h[4:1],,3,
{4}2/4,7/8,1/6,1/2,
{4}3/8,5/6,3/4,3/6,
{4},2h[4:1]/4h[4:1],,3,
{4}2/4,5h[4:1]/7h[4:1],,6,
{4}5/7,3/4,2,1,
{4}7/8,5/6,7,8,
{4}1/2,3h[4:1],4h[4:1],5h[4:1],
{4}6h[4:1],7-3[4:1],,,
{4}2/4,1/8,5/7,1/8,
{4}2/7,5/6,3/4,5/6,
{4}3/4,4-1[4:1]/5-8[4:1],,,
{4}2b/7b,4/5,2h[2:1],3h[4:1],
{4},4/5,7h[2:1],6h[4:1],
{4},4/5,3/4,2,
{4}5/6,7,3/4,5/6,
{4}4/5,2/7,4qq1[8:7]/5pp8[8:7],,
{1},
{1}2b/7b,
{1},
{1},
{1},
E
&inote_4=
(145){1},
{4}4h[2:1]/5h[2:1],,,2/7,
{8}1,1,8,8,1,8,2b/7b,,
{4}1-6[8:1]/2-5[8:1],,3/7,3/7,
{4}2/5h[4:1],4,1/3h[4:1],1,
{4}4h[4:1]/5h[4:1],,2/7,3/6,
{4}2/4,5/7,3/4,1/6,
{16}5/6,,,,3/8,,,,3/6,,2/7,,1/8,1/8,,2/7,
{8},,4b/5b,,3,3,4,4,
{8}2/5,,4/7,,6,6,5,5,
{8}4/7,,2/5,,1/8,,4,4,
{8}5,5,3/6,,3/6,,4,2,
{8}5,7,4/5,3/6,1/8,,6h[4:3],,
{4}5,4,5,3h[4:3],
{16}4,,,,5,,,,4,,,,5h[8:1]/6h[8:1],,,5/6,
{8},2/7,2h[2:1]/7h[2:1],,,,,,
{4}3h[4:3],4,2,4,
{4}6h[4:3],5,7,5,
{16}3h[8:1]/4h[8:1],,,3/4,,,2/7,,2/7,,,,4/5,,,,
{8}5/6,5/6,4/7,,3/4,3/4,2/5,,
{4}3/6,2/8-4[8:1],2,1,
{4}1-5[8:1]/7,7,8,2/8-4[8:1],
{4}2,1,1-5[8:1]/7,7,
{8}8,,2/7,2/7,,,3h[4:1]/4,,
{8}2,,4,5,3/6,,5/6h[4:1],,
{8}7,,5,4,3/6,,2h[4:1],,
{4}3h[4:1],4,7h[4:1],6h[4:1],
{1}5>7[2:1],
{4}5,5/7,4,2/4,
{4}5,5-1[8:1]/7,6,2/4-8[8:1],
{4}3,5-1[8:1]/7,6,2/4-8[8:1],
{4}3,5/7,2/4,2h[4:1]/7h[4:1],
{8},,1/8,7,1/8,2,1/8,7,
{4}1b/8b,1-3[8:1]/8-6[8:1],,4/5,
{4}3/7,2/5h[4:1],4,1/3h[4:1],
{8}1,,4/5,6,4/5,,4/5,3,
{4}4/5,3h[2:1]/6h[2:1],,,
{4}2/7,5>2[8:1]/6<1[8:1],,3/4,
{4}5/7,3>8[8:1]/4<7[8:1],,5/6,
{8}2/4,,7,7,1,2,2,8,
{8}1/8,,2,2,8,7,7,1,
{4}1/8,7<4[8:1]/8,1,1/2>5[8:1],
{4}8,2/7<2[4:1],,,
{16}1h[8:1]/2h[8:1],,,1/2,,,,,7h[8:1]/8h[8:1],,,7/8,,,,,
{16}1/8,,,,2h[8:1]/7h[8:1],,,3h[8:1]/6h[8:1],,,4h[8:1]/5h[8:1],,,3h[8:1]/6h[8:1],,,
{16}2h[8:1]/7h[8:1],,,1h[8:1]/8h[8:1],,,1/8,,1/8,1/8,,2/7,,,,,
{8}4b/5b,,3/4h[4:1],,5h[2:1],,8,8,
{8}7b,,6,6,5,5,4/7,,
{8}1/6,,1/8,,3,3,4,4,
{8}2/5,,3/8,,5,7,4,2,
{8}3/6,4/5,1/8,,3h[2:1]/6h[2:1],,,,
{4},4h[2:1]/5h[2:1],,,
{1}1b>8[4:5]/8b<1[4:5],
{1},
{1},
{1},
E
&inote_5=
(145){1},
{2}1v4[8:1]/7v4[8:1],4-1[8:1]*-7[8:1],
{8}1/2,5/6,7/8,3/4,2/7,4/5,1b-3[8:1]/8b-6[8:1],,
{16}1b/8b,,,,,,4/5,,3/7qq5[16:3],3/7,,2,,,3,,
{8}4/6,2/5,4/8-5[8:1],,3/8-4[8:1],,2/8,,
{4}5h[8:1]/6h[8:1],4h[8:1]/5h[8:1],3h[8:1]/4h[8:1],4h[8:1]/5h[8:1],
{16}5/6,,3/4,,4,5,,3/6,3/6,,7,8,,1/6,1/6,,
{16}2,1,,7,8,,1/7,,6,2,5,3-8[8:1],4,3,4,3,
{16},,,,1b/6b,,,,2,4,3,,6,5,7,,
{16}2>5[8:1],,1,1,,8,8,,7,5,6,,3,4,2pp3[8:1],,
{16}6,,7,7,,,1/8,,2/7,,1/8,,3/4,,1/8,,
{16}5/6,,1/8,,2/4,,7,5,,2,4,,3/4,,2/5,,
{16}3/4,,1/6,,4,3,5,1,7b,,,,2>5[8:1],,1,,
{16}8,,7,,6,,6,5,,,3/8,,7-4[8:1],,8,,
{16}1,,2,,3,,3,4,,,1/6,,3h[16:3]/4h[16:3],,,,
{8},4/5,3/6,1/8,2h[8:1]/7h[8:1],,2h[8:1]/7h[8:1],,
{16}7-4[8:1],,8,,1,,2,,3h[16:3],,,4,,,1/6,,
{16}2-5[8:1],,1,,8,,7,,6h[16:3],,,5,,,3/8,,
{8}5h[16:3]/6h[16:3],,,4/5,2/7s3[16:3],,2z6[16:3],,
{4},5pp5[16:5]*qq5[16:5],,,
{8}4/5,,2,,1b/8b,,,4h[8:1],
{16}5,3,6,2,7p5[8:3],1b,,1b,,1b,,,,,,,
{4}3,3V14[4:1]/6V85[4:1],3/6,,
{32}8,7,6,5,4,3,2,1,8,7,6,5,4,3,2,1,4/8,,,,,,,,6h[4:1],,,,7,,,,
{8}8h[4:1],7,6,5,4/6,,3h[4:1],2,
{16}1h[4:1],,2,,3,,3,4,3,,,,4h[8:1]/5h[8:1],,,,
{4}2h[8:1]/5h[8:1],4/7-2[4:1],2-6[4:1],6>3[4:1],
{8}3>5[16:9],,8b,,,,,3,
{16}2,,1,,7h[8:1],,8,8,,,1/8,,2h[8:1],,1,1,
{16},,1/8,,2/7,,3/8,,1/2,1/2,,,1/6,,7/8,7/8,
{8},3/4,2,1/2,,5/6,7,7/8,
{16},,3/4,,3,4,2,,6,5,7,,3v8[8:1]/5v8[8:1],,,,
{8}3/5,,1b,2b,3b,4b,5b,3b,
{16}1b-3[8:1]/8b-6[8:1],,,,1b/8b,,,,,,4/5,,3/7qq5[16:3],3/7,,2,
{8},3,4/6,2/5,4/8-5[8:1],,3/8-4[8:1],,
{4}2/8,3h[8:1]/5h[8:1],4h[8:1]/7h[8:1],2h[8:1]/6h[8:1],
{4}4h[8:1]/8h[8:1],1-4[8:1]/8-5[8:1],1/8,2b/7b,
{16}7<4[16:3]/8>3[16:3],,,,7/8,,,,,,2pp4[16:3]/6,2/6,,,8,,
{8}7,6,3/5,4/7,1-4[8:1]/5,,1-5[8:1]/6,,
{16}1/7,,,,6,5,7,4,8,,2/7,,1pp2[16:3]/8qq7[16:3],,,,
{16}1b/8b,,,,3,4,2,5,1pp1[4:1],,8,,7,,6,,
{4}6-8[8:1],4-8[8:1],5-8[8:1],3-8[8:1],
{4}4<8[16:5],2,,,
{16}6,5,,4/7,,,,,3,4,,2/5,,,,,
{16}5,4,5,4,6,3,,7,7/8,,2,1/2,,6,5,6,
{16}5,,2,8,3,7,4,6-1[8:1],5,6,5,6,,,,,
{8}3b/8b,,1/5h[2:1],2,7,8,1-4[8:1],,
{16}1/6,,,,2,4,3,,6,5,7qq6[8:1],,3,,2,2,
{8},1/8,2/7,1/8,5/6,1/8,3/4,1/8,
{16}5/7,,2,4,,7,5,,5/6,,3/8,,5/6,,1/2,,
{48}5,,,6,,,4,,,8,,,2b,,,,,,,,,,,,8,,,,8,,,,8,,,,2,,,,2,,,,2,,,,
{12}3/4,,,1,1,1,7,7,7,5w1[4:3]/6,,,
{1}5b,
{1},
{1},
{1},
E
