&title=KING is BACK!!
&wholebpm=176
&artist=A-One
&des=Revo@LC
&shortid=631
&genre=maimai
&cabinet=SD
&version=maimai MURASAKi PLUS
&chartconverter=Neskol
&lv_2=6
&des_2=-
&lv_3=8+
&des_3=-
&lv_4=11+
&des_4=某S氏
&lv_5=14
&des_5=Revo@LC
&des_6=
&inote_2=
(176){1},
{1},
{1},
{1},
{1},
{2},1/8,
{2},1/8,
{2},1/8,
{1},
{4}1,1,1,,
{4}2,2,2,,
{4}3,3,3,,
{1}4h[2:1],
{4}5,5,5,,
{4}6,6,6,,
{4}7,7,7,,
{1}8h[2:1],
{2}1/2,1/2,
{4}8,1,8,,
{4}1,1,1b,,
{4}7,7,7,,
{2}7/8,7/8,
{4}1,8,1,,
{4}8,8,8b,,
{4}2,2,2,,
{2}3,3,
{2}4,4,
{4}6,5,6,,
{4}3,4,3,,
{2}5,5,
{2}6,6,
{1}7-3[4:3],
{1},
{2}1/2,1/2,
{2}7/8,7/8,
{2}1/2,1/2,
{4}7,8,7,,
{2}7/8,7/8,
{2}1/2,1/2,
{2}7/8,7/8,
{4}2,1,2,,
{2}3,3,
{2}4,4,
{4}5/6,5/6,5/6,,
{1}4h[2:1]/7h[2:1],
{4}7,7,7,,
{4}8,8,8,,
{4}1,1,8,8,
{4}1,1,1b/8b,,
{4}8,8,8,,
{4}7,7,7,,
{4}6,6,6,,
{1}5h[2:1],
{4}4,4,4,,
{4}3,3,3,,
{4}2,2,2,,
{1}1h[2:1],
{4}8,8,1/8,,
{4}1,1,1/8,,
{4}7,8,7,,
{4}2,1,2,,
{4}3,3,3,,
{4}4,4,4,,
{1}5-8[4:3],
{1},
{2}7/8,7/8,
{2}1/2,1/2,
{2}7/8,7/8,
{4}2,1,2,,
{2}1/2,1/2,
{2}7/8,7/8,
{2}1/2,1/2,
{4}7,8,7,,
{2}6,6,
{2}5,5,
{4}3/4,3/4,3/4,,
{1}2h[2:1]/5h[2:1],
{4}2,2,2,,
{4}1,1,1,,
{4}8,8,1,1,
{4}8,8,1b/8b,,
{4}1,1,1,,
{4}2,2,1/2,,
{4}3,3,3,,
{1}4h[2:1]/5h[2:1],
{4}5,5,5,,
{4}6,6,5/6,,
{4}7,7,7,,
{1}1h[2:1]/8h[2:1],
{4}1/8,1/8,1/8,2b/7b,
{1},
{1},
{1},
E
&inote_3=
(176){1},
{4}4,5,,,
{4}4,5,,,
{4}4,5,,,
{4}4,5,,,
{4}4,5,,,
{4}4,5,,,
{4}4,5,,,
{4}4/5,,,2b/7b,
{4}3,4,2/5,,
{4}6,5,4/7,,
{4}1,1,8,8,
{4}1,8,2/7,,
{4}6,5,4/7,,
{4}3,4,2/5,,
{4}8,8,1,1,
{1}1-4[2:1]/8-5[2:1],
{4}6,6,5/7,,
{4}3,3,2/4,,
{4}8,8,8b,,
{1}1/8-4[2:1],
{4}3,3,2/4,,
{4}6,6,5/7,,
{4}1,1,1b,,
{1}1-5[2:1]/8,
{4}6,5,4/7,4/7,
{4}3,4,2/5,,
{4}3,4,2/5,2/5,
{4}6,5,4/7,,
{2}3h[4:1]/4h[4:1],5h[4:1]/6h[4:1],
{2}3h[4:1]/4h[4:1],5h[4:1]/6h[4:1],
{1}4qq1[4:3]/5pp8[4:3],
{4},,,3,
{4}3/4,1/8,1/8,6,
{4}5/6,1/8,1/8,3,
{4}3/4,1/8,1/8,2,
{4}3,4,5,6,
{4}5/6,1/8,1/8,3,
{4}3/4,1/8,1/8,6,
{4}5/6,1/8,1/8,7,
{4}6,5,3/4,,
{2}1-3[4:1],8-6[4:1],
{2}1-4[4:1],8-5[4:1],
{4}3,2,1,8,
{2}7h[4:1]/8h[4:1],1h[4:1]/2h[4:1],
{2}8-6[4:1],1-3[4:1],
{2}8-5[4:1],1-4[4:1],
{4}6h[4:1],5h[4:1],4h[4:1],3,
{4}1/8,2/7,3b/6b,,
{4}3h[4:1],4,6h[4:1],5,
{4}2h[4:1],1,7h[4:1],8,
{4}3h[4:1],4,6h[4:1],5,
{1}2h[4:3]/7h[4:3],
{4}6h[4:1],5,3h[4:1],4,
{4}7h[4:1],8,2h[4:1],1,
{4}6h[4:1],5,3h[4:1],4,
{1}1>4[2:1]/8<5[2:1],
{4}4,5,,,
{8}4,,5,,,1/8,,1b/8b,
{4},2,3,4,
{4}7,6,5,4/5,
{2}2h[4:1]/4h[4:1],5h[4:1]/7h[4:1],
{2}2h[4:1]/4h[4:1],5h[4:1]/7h[4:1],
{1}4qq1[4:3]/5pp8[4:3],
{4},,,6,
{4}5/7,1/8,1/8,3,
{4}2/4,1/8,1/8,6,
{4}5/7,1/8,1/8,7,
{4}6,5,4,3,
{4}2/4,1/8,1/8,6,
{4}5/7,1/8,1/8,3,
{4}2/4,1/8,1/8,2,
{4}3,4,5/6,,
{2}5-7[4:1],4-2[4:1],
{2}5-8[4:1],4-1[4:1],
{4}7,6,5,4,
{2}1h[4:1]/2h[4:1],7h[4:1]/8h[4:1],
{2}4-2[4:1],5-7[4:1],
{2}4-1[4:1],5-8[4:1],
{4}2h[4:1],1h[4:1],8h[4:1],7,
{4}4/5,3/6,2b/7b,,
{4}4,3,2/5,2/5,
{4}1,8,7/8,,
{4}5,6,4/7,4/7,
{4}8,1,1/2,,
{4}8,7,1/6,1/6,
{4}5,4,3/4,,
{4}1,2,3/8,3/8,
{2}4h[4:1]/7h[4:1],2h[4:1]/5h[4:1],
{4}1/8,1/8,1b/8b,2h[4:13]/7h[4:13],
{1},
{1},
{1},
{1},
{1},
{1},
E
&inote_4=
(176){1},
{4}4,5,3/6,,
{4}4,5,3/6,,
{4}6,5,4/7,,
{4}6,5,4/7,,
{4}3,4,2/5,,
{4}3,4,2/5,,
{4}8,1,2/7,,
{4}1-5[4:1]/8-4[4:1],,,2b/7b,
{8}1,8,,2/6,,3/7,,1/5,
{8},8,1/7,,1,2/8,,,
{8}8,1,,3/7,,2/6,,4/8,
{4}8h[4:1],1h[4:1],2h[4:1],3,
{8}4,5,,3/7,,2/6,,4/8,
{8},5,4/6,,4,3/5,,,
{8}5,4,,2/6,,3/7,,1qq6[8:5]/5,
{1},
{4}5/7,6,2/4,3,
{8}2,1,2,,7,8,7,,
{4}2b-5[8:1],1b-6[8:1],2b,,
{8}3/8,,1/6,,8,8,,,
{4}2/4,3,5/7,6,
{8}7,8,7,,2,1,2,,
{4}7b-4[8:1],8b-3[8:1],7b,,
{8}1/6,,3/8,,1,1,,,
{4}7h[4:1],8,2h[4:1],1,
{8}8,8-4[8:1],,1,,2,,2h[8:5]/8,
{8},3,3,,8,8,,1/7h[8:5],
{8},6,6,,1,1,2/8,,
{4}3h[4:1],4,6h[4:1],5,
{8}4,5,,3/6,,4<8[8:7]/5>1[8:7],4/5,,
{1},
{8}2,7,1,8,,,1-5[8:1],,
{4}7,7-4[8:1],1b,1-5[8:1],
{4}7,7-4[8:1],1b,1-5[8:1],
{4}7,7-4[8:1],1b,1,
{8}7,8,7,1h[4:1],,8,8-4[8:1],,
{4}2,2-5[8:1],8b,8-4[8:1],
{4}2,2-5[8:1],8b,8-4[8:1],
{4}2,2-5[8:1],8b,8,
{8}2,1,2,8h[4:1],,1,,,
{8}2h[4:1]/8,,3h[4:1],,4,4,3/5,,
{8}4/6h[4:1],,7h[4:1],,8,8,1/7,,
{8}7,8,7,,2,1,2,8q1[8:3],
{4},,,1/8,
{8}1/7h[4:1],,6h[4:1],,5,5,4/6,,
{8}3h[4:1]/5,,2h[4:1],,1,1,2/8,,
{1}3>8[2:1]/7<4[2:1],
{4}3b/7b,1b/5b,3b/7b,1b/8b,
{8}8,1,,3/7,,2/6,,4/8,
{8},1,2/8,,8,1/7,,,
{8}1,8,,2/6,,3/7,,1pp3[8:3]/5pp7[8:3],
{4},,,2/6,
{8}5,4,,2/6,,3/7,,1/5,
{8},4,3/5,,5,4/6,,,
{8}4,5,,3/7,,2/6,,4qq2[8:3]/8qq6[8:3],
{4},,,3/7,
{4}5/6,5/6,4/7,,
{8}3/4,,3/4,,2/5,,,1/7h[8:5],
{8},6,6,,1,1,,2h[8:5]/8,
{8},3,3,,8,8,1/7,,
{4}6h[4:1],5,3h[4:1],4,
{8}5,4,,3/6,,4qq1[8:7]/5pp8[8:7],4/5,,
{1},
{8}7,2,8,1,,,8-4[8:1],,
{4}1,2-5[8:1],1b,8-4[8:1],
{4}1,2-5[8:1],1b,8-4[8:1],
{4}1,2-5[8:1],1b,8,
{8}2,1,2,8h[4:1],,1,1-5[8:1],,
{4}8,7-4[8:1],8b,1-5[8:1],
{4}8,7-4[8:1],8b,1-5[8:1],
{4}8,7-4[8:1],8b,1,
{8}7,8,7,1h[4:1],,8,,,
{8}1/7h[4:1],,6h[4:1],,5,5,4/6,,
{8}3h[4:1]/5,,2h[4:1],,1,1,2/8,,
{8}2,1,2,,7,8,7,1p8[8:3],
{4},,,1/8,
{8}2h[4:1]/8,,3h[4:1],,4,4,3/5,,
{8}4/6h[4:1],,7h[4:1],,8,8,1/7,,
{1}2pp3[2:1]/6pp7[2:1],
{4}2b/6b,4b/8b,2b/6b,1b/8b,
{8}8,1,,3/7,,2/6,,4/8,
{8},1>4[8:1],1,,8<5[8:1],8,,,
{8}1,8,,2/6,,3/7,,1/5,
{4}1-5[8:1],7-3[8:1],2-6[8:1],8,
{8}5,4,,2/6,,3/7,,1/5,
{8},4>1[8:1],4,,5<8[8:1],5,,,
{8}4,5,,3/7,,2/6,,4/8pp3[8:5],
{1},
{4}2b/4b,5b/7b,1b/6b,4b<7[1:3]/8b>3[1:3],
{1},
{1},
{1},
{1},
{1},
{1},
E
&inote_5=
(176){1},
{4}1/2,1/2,3/8,,
{4}7/8,7/8,1/6,,
{4}1/2,1/2,3/8,,
{4}7/8,7/8,1/6,,
{4}1/2,1/2,3/8,,
{4}7/8,7/8,1/6,,
{4}1/2,1/2,3/8,,
{4}1pp4[8:3]/8qq5[8:3],,,2b/7b,
{8}5/6,7,8,1<6[8:1]/2,,1>6[4:1],,1,
{16},,7,,1/8,,1/2,1/2,,7/8,7h[4:1]/8h[4:1],,,,,,
{8}3/4,2,1,7/8>3[8:1],,8<5[8:1],,8,
{16}1,2,3,8,7,6,2,3,4,7,6,5,1b,,,,
{8}5/6,7,8,1<6[8:1]/2,,1>6[4:1],,1,
{16},,7,,1/8,,1/2,1/2,,7/8,7h[4:1]/8h[4:1],,,,,,
{8}3/4,2,1,7/8>3[8:1],,8<5[8:1],,8,
{16}1,2,3,8,7,6,2,3,4,7,6,5,1,2,3,4,
{8}1-6[8:1],3,1,3,1-6[8:1],3,1,3,
{8}7/8-3[8:1],6,8,6,8-3[8:1],6,8,6,
{4}2b-5[8:1]/6b-1[8:1],2b<7[8:1]/6b>3[8:1],2b/6b,,
{16}2,4,3,5,4,6,5,7,1/8,,2/7,,,,,,
{8}7/8-3[8:1],6,8,6,8-3[8:1],6,8,6,
{8}1-6[8:1]/2,3,1,3,1-6[8:1],3,1,3,
{4}3b-8[8:1]/7b-4[8:1],3b<6[8:1]/7b>2[8:1],3b/7b,,
{16}7,5,6,4,5,3,4,2,1/8,,2b/7b,,,,4,5,
{8}3b/6b,,3,2/5,1,3/8,7,1/6,
{8}5<8[8:1],4>1[8:1],5,4,,1bp4[8:1]/8bq5[8:1],,1b/8b,
{8},3/7,2-6[8:1],6-2[8:1],2,8,,4/5,
{8},2/6,7-3[8:1],3-7[8:1],7,1,2,3/6,
{16}1b/8b,,7,8,7,1,7,,2/6,,1,8,1,7,1,,
{16}2/6,,8,1,8,2,8,,3/7,,2,1,2,8,2,,
{16}3/7,,2,6,3,7,4,8,5,1,4,8,3,7,2,6,
{8}1/5,2/6,3/7,4/8,,,1-5[8:1]/2-5[8:1],3,
{8}1b/2b,,7-4[8:1]/8-4[8:1],6,7b/8b,,1-5[8:1]/2-5[8:1],3,
{8}1b/2b,,7-4[8:1]/8-4[8:1],6,7b/8b,,1-5[8:1]/2-5[8:1],3,
{8}1b/2b,,7-4[8:1]/8-4[8:1],6,7b/8b,,5/6,8,
{8}3/4,1,5/6,8,3/4,1,7-3[8:1]/8-3[8:1],6,
{8}7b/8b,,1-6[8:1]/2-6[8:1],3,1b/2b,,7-3[8:1]/8-3[8:1],6,
{8}7b/8b,,1-6[8:1]/2-6[8:1],3,1b/2b,,7-3[8:1]/8-3[8:1],6,
{8}7b/8b,,1-6[8:1]/2-6[8:1],3,1b/2b,,7/8,1/6,
{32}7,,8,,6,,1,,5,,2,,4<7[8:1],,,,,,,,4,,,,1,2,3,4,5,6,7,8,
{8}1b-5[8:1],6,1,7,8-4[8:1],3,8,2,
{8}1-6[8:1],6,1,7,8-3[8:1],3,8,2,
{8}1/6h[4:1],,4h[8:1],3h[8:1],2h[8:1],1h[8:1],8h[8:1],7,
{32}2,,8,,4,,6,,1,,7,,3,,5,,2,,8,,4,,6,,1,2,3,4,5,6,7,8,
{8}1b-5[8:1],6,1,7,8-4[8:1],3,8,2,
{8}1-6[8:1],6,1,7,8-3[8:1],3,8,2,
{16}1,5,3,7,2,6,4,8,3,7,1,5,4,8,2,6,
{4}1b>3[8:1]/8b<6[8:1],1b-5[8:1]/8b-4[8:1],1b/8b,2/7,
{8}3,2,1,7/8-4[8:1],,8>5[4:1],,8,
{16},,2,,1/8,,6,6,,3,3h[4:1],,,,,,
{8}6,7,8,1-5[8:1]/2,,1>4[8:1],,1,
{16}8,7,6,1,2,3,7,6,5,2,3,4,8b,,,,
{8}3/4,2,1,7/8-4[8:1],,8>5[4:1],,8,
{16},,2,,1/8,,6,6,,3,3h[4:1],,,,,,
{8}5/6,7,8,1-5[8:1]/2,,1>4[8:1],,1,
{16}8,7,6,1,2,3,7,6,5,2,3,4,8,7,6,5,
{4}3/4,3/4,2/5,,
{8}5/6,,5/6,,4/7,5b-1[8:1]/6b-1[8:1],,5b/6b,
{8},2/8,3-7[8:1],7-3[8:1],3,1,,4/5,
{8},1/7,6-2[8:1],2-6[8:1],6,8,1,2/7,
{16}4b/5b,,2,1,2,8,3,,4/7,,8,1,8,2,7,,
{16}3/6,,1,8,1,7,2,,3/6,,7,8,7,1,6,,
{16}2/5,,7,3,6,2,5,1,4,8,5,1,6,2,7,3,
{8}4/8,3/7,2/6,1/5,,,7-4[8:1]/8-3[8:1],1/6,
{8}7b/8b,,1-6[8:1]/2-5[8:1],3/8,1b/2b,,7-4[8:1]/8-3[8:1],1/6,
{8}7b/8b,,1-6[8:1]/2-5[8:1],3/8,1b/2b,,7-4[8:1]/8-3[8:1],1/6,
{8}7b/8b,,1-6[8:1]/2-5[8:1],3/8,1b/2b,,3/5,1,
{8}4/6,8,3/5,1,4/6,8,1-5[8:1]/2-6[8:1],3/8,
{8}1b/2b,,7-3[8:1]/8-4[8:1],1/6,7b/8b,,1-5[8:1]/2-6[8:1],3/8,
{8}1b/2b,,7-3[8:1]/8-4[8:1],1/6,7b/8b,,1-5[8:1]/2-6[8:1],3/8,
{8}1b/2b,,7-3[8:1]/8-4[8:1],1/6,7b/8b,,1/2,3/8,
{32}2,,1,,3,,8,,4,,7,,5>2[8:1],,,,,,,,5,,,,8,7,6,5,4,3,2,1,
{8}8b-4[8:1],6,8,2,1-5[8:1],3,1,7,
{8}8-3[8:1],6,8,2,1-6[8:1],3,1,7,
{8}3h[4:1]/8,,5h[8:1],6h[8:1],7h[8:1],8h[8:1],1h[8:1],2,
{32}7,,1,,5,,3,,8,,2,,6,,4,,7,,1,,5,,3,,8,7,6,5,4,3,2,1,
{8}8b-4[8:1],6,8,2,1-5[8:1],3,1,7,
{8}8-3[8:1],6,8,2,1-6[8:1],3,1,7,
{16}8,4,6,2,7,3,5,1,6,2,8,4,5,1,7,3,
{4}1b>3[8:1]/8b<6[8:1],1b-5[8:1]/8b-4[8:1],1b/8b,2/7,
{8}5/7,2/4,7/8,1<6[8:1]/2,,1>6[4:1],,1,
{16},,7,,1/8,,3/4,3/4,,5/6,5h[4:1]/6h[4:1],,,,,,
{8}2/4,5/7,1/2,7/8>3[8:1],,8<5[8:1],,8,
{16}1,2,3,4/8,7,6,1/5,2,3,4/8,7,6,1b/5b,,,,
{8}5/7,2/4,7/8,1-5[8:1]/2,,1<4[4:1],,1,
{16},,7,,1/8,,3/4,3/4,,5/6,5h[4:1]/6h[4:1],,,,,,
{8}2/4,5/7,1/2,7/8-4[8:1],,8<5[8:1],,8,
{16}1b,2,3,4/8b,7,6,1b/5,2,3,4/8b,7,6,1b/5,2,3,4,
{4}1b<6[8:1]/5b>2[8:1],1b-4[8:1]/5b-8[8:1],1b/5b,1b<2[1:3]/2b>1[1:3],
{1},
{1},
{1},
{1},
{1},
{1},
E
