&title=AMAZING MIGHTYYYY!!!!
&artist=WAiKURO
&wholebpm=185
&demo_seek=11.6
&demo_len=12.1
&lv_1=4
&lv_2=7+
&lv_3=9+
&lv_4=13+
&lv_5=14+
&lv_6=14
&des_4=はっぴー
&des_5=合作だよ
&des_6=はっぴー
&inote_1=(185.0){1},,
{2}1,1,
{2}2,2,
{2}3,3,
{2}4,4,
{2}5,5,
{2}6,6,
{2}7,7,
{1}8b,
{4}8,8,8,,
{4}7,7,7,,
{4}6,6,6,,
{4}5,5,5,,
{4}4,4,4,,
{4}3,3,3,,
{4}2,2,2,,
{4}1,1,1,,
{4}1,1,1,,
{4}2,2,2,,
{4}3,3,3,,
{4}4,4,4,,
{4}5,5,5,,
{4}6,6,6,,
{4}7,7,7,,
{4}8,8,8,,
{4}8,8,
{2}8h[1:1],{1},
{4}1,1,
{2}1h[1:1],{1},
{4}2,2,
{2}2h[1:1],{1},
{4}3,3,
{2}3h[1:1],{1},
{4}4,4,
{2}4h[1:1],{1},
{4}5,5,
{2}5h[1:1],{1},
{4}6,6,
{2}6h[1:1],{1},
{4}7,7,
{2}7h[1:1],{1},
{1}8-4[4:3],,
{1}1-5[4:3],,
{1}7-3[4:3],,
{1}2-6[4:3],,
{2}8,8,
{2}7,7,
{2}6,6,
{2}5,5,
{2}4,4,
{2}3,3,
{2}2,2,
{2}1,1,
{1}8h[1:1],,
{1}1h[1:1],,
{1}1h[1:1]/8h[1:1],,
{1}1/8,
{1}1/8,
{1}2/7,
{1}3/6,
{1}4/5,
{1}4/5,
{4}5,5,5,5,
{4}6,6,6,,
{4}7,7,7,7,
{4}8,8,8,,
{4}1,1,1,1,
{4}2,2,2,,
{4}3,3,3,3,
{4}4,4,4,,
{4}4,4,4,4,
{4}3,3,3,,
{4}2,2,2,2,
{4}1,1,1,,
{4}8,8,8,8,
{4}7,7,7,,
{4}6,6,6,6,
{4}5,5,5,,
{1}4-1[4:3],,,,
{1}8-5[4:3],,
{1}4-1[4:3],,
{4}1b,1,1,1,
{4}2,2,2,,
{4}3,3,3,3,
{4}4,4,4,,
{4}5,5,5,5,
{4}6,6,6,,
{4}7,7,7,7,
{4}8,8,8,,
{1}1b,
E
&inote_2=(185.0){1},,
{2}4,4,
{2}4,4,
{2}5,5,
{2}5,5,
{4}4,4,3,3,
{4}2,2,1,1,
{4}8,8,7,7,
{4}5b/6b,,,1b,
{4}5,5,5/6,,
{4}4,4,3/4,,
{4}5,5,5/6,,
{4}4,4,3,3,
{4}2,2,1/2,,
{4}7,7,7/8,,
{4}2,2,1/2,,
{1}7h[2:1]/8h[2:1],
{4}6,6,5/6,,
{4}3,3,3/4,,
{4}6,6,5/6,,
{4}3,3,2,2,
{4}1,1,1/2,,
{4}8,8,7/8,,
{4}1,1,1/2,,
{4}1h[2:1]/8h[2:1],,,1/8,
{4}7,7,6,6,
{4}5,5,4,4,
{4}3,3,2,2,
{4}1h[2:1],,,2/8,
{4}2,2,3,3,
{4}4,4,5,5,
{4}6,6,7,7,
{4}8h[2:1],,,1/7,
{8}7,,7,,6,6,6,,
{8}5,,5,,4,4,4,,
{8}3,,3,,2,2,2,,
{4}1h[2:1]/8h[2:1],,,1/8,
{8}2,,2,,3,3,3,,
{8}4,,4,,5,5,5,,
{8}6,,6,,7,7,7,,
{4}1h[2:1]/8h[2:1],,,1/8,
{1}2b/7b,,,,,,,,
{4}2,2,2,2,
{4}3,3,3,3,
{4}4,4,4,4,
{4}5,5,4,4,
{4}5,5,5,5,
{4}6,6,6,6,
{4}7,7,7,7,
{4}8,8,1,1,
{1}2-6[4:5],,
{1}7-3[4:5],,
{1}1-4[4:5],,
{1}5-8[4:5],,
{2}1/2,7/8,
{4}1/2,1/8,7/8,,
{8}6,6,6,,5,5,5,,
{8}4/5,,4,5,4,,3/6,,
{4}4,4,3,3/4,
{4}2,2,1,1/8,
{4}8,8,7,7/8,
{8}6,6,6,,3,3,3,,
{4}5,5,6,5/6,
{4}7,7,8,1/8,
{4}1,1,2,1/2,
{8}3,3,3,,6,6,6,,
{8}4,4,4,,3/4,,2/5,,
{8}2,2,2,,1/2,,3/8,,
{8}8,8,8,,7/8,,1/6,,
{8}6,5,6,,3,4,3,,
{8}5,5,5,,5/6,,4/7,,
{8}7,7,7,,7/8,,1/6,,
{8}1,1,1,,1/2,,3/8,,
{8}3,4,3,,6,5,6,,
{1}4-8[4:5],,
{1}5-1[4:5],,
{1}3-8[4:5],,
{1}6-1[4:5],,
{4}1b/2b,2,3,3/4,
{4}4,4,5,4/5,
{4}6,6,7,7/8,
{8}8,8,8,,1,1,1,,
{8}7,8,7,,2,1,2,,
{8}3,4,3,,6,5,6,,
{8}6,6,5,5,4,4,3,3,
{8}2,1,8,7,6,5,4,3,
{1}1b/2b,
E
&inote_3=(185.0){1},,
{4}5,5,5,5,
{4}4,4,4,4,
{4}5,5,5,5,
{4}4,4,4,4,
{4}5/6,5/6,4/7,4/7,
{4}3/4,3/4,2/5,2/5,
{4}5/6,5/6,4/7,4/7,
{4}4^1[4:1]/5^8[4:1],,,2b/7b,
{4}5/6,3/6,5/6,3/6,
{4}3/4,3/6,3/4,3/6,
{4}5/6,3/6,5/6,3/6,
{4}3/4,2/5,1/6,7/8,
{4}3/4,3/6,3/4,3/6,
{4}5/6,3/6,5/6,3/6,
{4}3/4,2/5,1/6,7/8,
{2}1-6[8:1]/2-5[8:1],7-4[8:1]/8-3[8:1],
{4}5/6,3/5,5/6,3/5,
{4}3/4,4/6,3/4,4/6,
{4}5/6,3/5,5/6,3/5,
{4}3/4,2/5,1/6,7/8,
{4}3/4,4/6,3/4,4/6,
{4}5/6,3/5,5/6,3/5,
{4}3/4,2/5,1/6,7/8,
{4}5/6,3/4,4/5,2b/7b,
{4}7h[4:3],6,3,6,
{4}2h[4:3],3,6,3,
{4}7h[4:3],6,3,6,
{4}2h[4:1],3,7h[4:1],6,
{4}2h[4:3],3,6,3,
{4}7h[4:3],6,3,6,
{4}2h[4:3],3,6,3,
{4}7h[4:1],6,2h[4:1],3,
{4}6h[4:3],5,1,4,
{4}3h[4:3],4,8,5,
{4}6h[4:3],5,1,4,
{4}3h[4:1],4,7h[4:1],8,
{4}3h[4:3],4,8,5,
{4}6h[4:3],5,1,4,
{4}3h[4:3],4,8,5,
{4}8h[4:1],7,1h[4:1],2,
{1}8<1[4:11],,,,
{1}5<4[4:11],,,,
{4}4h[4:1],3h[4:1],2h[4:1],1h[4:1],
{4}8h[4:1],7h[4:1],6h[4:1],5,
{4}5h[4:1],6h[4:1],7h[4:1],8h[4:1],
{4}1h[4:1],2h[4:1],3h[4:1],4,
{4}4h[4:1],3h[4:1],2h[4:1],1h[4:1],
{4}8h[4:1],7h[4:1],6h[4:1],5,
{4}5h[4:1],6h[4:1],7h[4:1],8h[4:1],
{4}1h[4:1],2h[4:1],3h[4:1],4,
{4}6h[4:1],5,3h[4:1],4,
{4}6h[4:1],5,7/8,1/6,
{4}3h[4:1],4,6h[4:1],5,
{4}3h[4:1],4,1/2,3/8,
{4}7h[4:1],8,2h[4:1],1,
{4}7h[4:1],8,5/6,4/7,
{4}2h[4:1],1,7h[4:1],8,
{4}2h[4:1],1,3/4,2/5,
{4}5/6,3/8,3/4,1/6,
{4}7/8,1/6,2/5,3/4,
{4}1/2,3/8,4/7,5/6,
{4}1-4[4:1]/8-5[4:1],,,1b/8b,
{4}5/7,2/7,5/7,2/7,
{4}2/4,2/7,2/4,2/7,
{4}5/7,2/7,5/7,2/7,
{4}2/4,5/7,4/5,1/8,
{4}2/4,2/7,2/4,2/7,
{4}5/7,2/7,5/7,2/7,
{4}2/4,2/7,2/4,2/7,
{4}4/5,3/6,2/7,1/8,
{4}5/7,2/5,5/7,2/5,
{4}2/4,4/7,2/4,4/7,
{4}5/7,2/5,5/7,2/5,
{4}2/4,4/7,5/7,2/5,
{4}2/4,4/7,2/4,4/7,
{4}5/7,2/5,5/7,2/5,
{4}3/4,2/5,1/6,7/8,
{4}5/6,4/7,3/8,1/2,
{4}8,8,1,1,
{4}8,8,1,1,
{4}7,7,2,2,
{4}7,7,2,2,
{4}6,5/6,3,3/4,
{4}6,5/6,3,3/4,
{4}5,4/5,4,4/5,
{4}5,4/5,4,4/5,
{4}6/8,3/6,6/8,3/6,
{4}1/3,3/6,1/3,3/6,
{4}6/8,3/6,6/8,3/6,
{4}1/3,3/6,6/8,3/6,
{4}1/3,1/6,1/3,1/6,
{4}6/8,3/8,6/8,3/8,
{4}1/3,1/6,1/3,1/6,
{4}6/8,4^1[4:1]/5^8[4:1],,,
{1}2b/7b,
E
&inote_4=(185.0){1},,
{4}4,4,5,5,
{4}4,4,5,5,
{4}3,3,6,6,
{4}3,3,6,6,
{4}3,2/4,6,5/7,
{4}2,1/3,7,6/8,
{16}1,,1,,8,,8,,1,8,1,8,1,8,1,8,
{4}1h[4:3],,,8b,
{8}2/4,,5/7-1[8:1],7,2-6[8:1],,5,,
{8}5/7,,4/2-8[8:1],2,7-3[8:1],,4,,
{8}2/4,,5/7-1[8:1],7,2-6[8:1],,5,,
{4}5/7-1[8:1],2-6[8:1],8-4[8:1],1,
{8}5/7,,4/2-8[8:1],2,7-3[8:1],,4,,
{8}2/4,,5/7-1[8:1],7,2-6[8:1],,5,,
{4}5/7,4/2-8[8:1],7-3[8:1],4,
{4}4/2-8[8:1],7-3[8:1],1h[4:1],8b,
{16}4/7,,6,,2/5,,3,,6,5,,5,7,,7,,
{16}2/5,,3,,4/7,,6,,3,4,,4,2,,2,,
{16}4/7,,6,,2/5,,3,,6,5,,5,7,,7,,
{16}2/5,,3,,4/7,,8,,2/4,,,5/7,,,1/8,,
{16}3/8,,2,,1/6,,7,,2,1,,1,3,,3,,
{16}1/6,,7,,3/8,,2,,7,8,,8,6,,6,,
{8}2/4,3,5/7,6,2/4,3,5/7,6,
{2}2/4v1[8:1]*v7[8:1],2v5[8:1]/8v5[8:1],
{8}5/7,6,4/8,,2/4,3,5/1-5[8:1],,
{8}8-4[8:1],8,2-6[8:1],2,7-3[8:1],7,1,,
{8}2/4,3,1/5,,5/7,6,4/8-4[8:1],,
{8}1-5[8:1],1,7-3[8:1],7,2-6[8:1],2,8,,
{8}7-4[8:1]/8-3[8:1],,,,1-6[8:1]/2-5[8:1],1/2,,,
{8}6/8,7,1/3,2,4-1[8:1]/5-8[8:1],,,,
{8}1-6[8:1]/2-5[8:1],,,,7-4[8:1]/8-3[8:1],7/8,,,
{8}1/3,2,6/8,7,4-1[8:1]/5-8[8:1],,,,
{16}4/6,,4/6,,3/5,,3/5,,4,5,4,,2/7,,,,
{8}7/8,1/6,1/2,3/8,1/8,2/7,3/6,,
{16}3/5,,3/5,,4/6,,4/6,,4,5,4,5,4-8[8:1],,,,
{4}6-1[8:1],3-8[8:1],5-1[8:1],4b,
{16}3/5,,3/5,,4/6,,4/6,,5,4,5,,2/7,,,,
{8}1/2,3/8,7/8,1/6,1/8,2/7,3/6,,
{16}1/7,,1/7,,2/8,,2/8,,1,8,1,8,1,8,1,8,
{8}1-5[8:1],1,6-8[8:1],6,4-2[8:1],4,
{4}5b<4[1:2],{1},,,,
{1}6h[1:1],
{1}5h[1:1],
{1}4h[2:3],
{4}5h[2:1],,,2/7,
{8}5/6,5/6h[1:2],,5,,5,,5,
{8},5,,5,,7,,8,
{8},3h[1:1],,4,,4,,4,
{8},6h[1:1],,5,,5,,5,
{8},3h[1:2],,4,,4,,4,
{8},4,,4,,2,,1,
{8},6h[1:1],,5,,5,,5,
{8},3h[4:3],,4,,4,,4,
{16}3/4,,,3/4,,,2/5,,,,,,5/6,,,5/6,
{16},,5/6,,,4/7,,,,,4/5,,,,,4,
{16}5,,,2/4,,,1/3,,,,,,4/5,,,5/7,
{16},,6/8,,,5/7,,,4/5,,,2/4,,,1/3,,
{16}1/3,,,,,,4,5,4,,,7/8,,,1/6,,
{16},,4/5,,,3/6,,,2/7,,,1/8,,,1/8,,
{16}1,8,1,8,1,8,1,8,2,7,2,7,2,7,2,7,
{16}1,8,1,8,2,7,2,7,1,8,1,8,2,7,2,7,
{2}1w5[8:1],2v5[8:1]/8v5[8:1],
{8}1-5[8:1],1,7-3[8:1],7,2-6[8:1],2,8-4[8:1],8,
{8}1-5[8:1],1,8-3[8:1],8,1-6[8:1],1,8,,
{4}1/8,4-8[8:1]/5-1[8:1],,2b/7b,
{16}1/8,,2/7,,1,8,,8,6,,6,8,,8,1,,
{16}1,3,,3,1,,1,8,,8,5,,4/6,,3/7,,
{16}1/8,,2/7,,8,1,,1,3,,3,1,,1,8,,
{16}8,6,,6,8,,8,1,,1,4,,3/5,,2/6,,
{16}1/8,,2/7,,1,8,,8,6,,6,8,,8,1,,
{16}1,3,,3,1,,1,8,,8,5,,4/6,,3/7,,
{16}1h[8:1]/2h[8:1],,,3/8,,,7h[8:1]/8h[8:1],,,1/6,,,3/4,,2/5,,
{16}5h[8:1]/6h[8:1],,,4/7,,,3h[8:1]/4h[8:1],,,2/5,,,7/8,,1/6,,
{16}4/5,,3/6,,5,4,,4,2,,2,4,,4,5,,
{16}5,7,,7,5,,5,4,,4,1,,2/8,,3/7,,
{16}4/5,,3/6,,4,5,,5,7,,7,5,,5,4,,
{16}4,2,,2,4,,4,5,,5,8,,1/7,,2/6,,
{16}4/5,,3/6,,5,4,,4,2,,2,4,,4,5,,
{16}5,7,,7,5,,5,4,,4,1,,2/8,,3/7,,
{16}7h[8:1]/8h[8:1],,,1/6,,,1h[8:1]/2h[8:1],,,3/8,,,5/6,,4/7,,
{16}1h[8:1]/2h[8:1],,,3/8,,,7h[8:1]/8h[8:1],,,1/6,,,2b/7b,,,,
{8}4/6,4/6,,3/5,,4/6,,3/5,
{8},4/6,,5/3-7[8:1],,6,6,,
{8}3/5,3/5,,4/6,,3/5,,4/6,
{8},3/5,,4/6-2[8:1],,3,3,,
{8}4/6,4/6,,3/5,,4/7,,2/5,
{8},4/8,,1/5-1[8:1],,4,4,,
{8}5,5,3,3,7,7,1,1,
{16}8,1,8,1,8,1,8,1,8,1,8,1,8,,,,
{16}2b/7b,,,,7,8,,8,2,,2,8,,8,7,,
{16}7,5,,5,7,,7,8,,8,4,,3/5,,2/6,,
{16}1/2,,3/8,,2,1,,1,7,,7,1,,1,2,,
{16}2,4,,4,2,,2,1,,1,5,,4/6,,3/7,,
{8}6-1[8:1],6,3-8[8:1],3,5-1[8:1],5,4-8[8:1],4,
{8}6-1[8:1],6,3-8[8:1],3,5-1[8:1],5,4,,
{16}2h[8:1]/4h[8:1],,,1/5,,,5h[8:1]/7h[8:1],,,4/8,,,3,,2/4,,
{16}6h[8:1]/8h[8:1],,,1/5,,,1h[8:1]/3h[8:1],,,4/8,,,4/5,,1/8,,
{1}2b/7b,
E
&inote_5=(185.0){1},,
{4}1-6[8:1],1-4[8:1],7-3[8:1],1,
{4}6-8[8:1],8v1[16:3],1-3[8:1],3,
{4}2v5[8:1]/8v5[8:1],2/8,1v4[8:1]/7v4[8:1],1/7,
{4}2v5[8:1]/8v5[8:1],2/8,1v4[8:1]/7v4[8:1],1/7,
{8}2/5h[8:1],3,8/4h[8:1],7,1/6h[8:1],2,5/3h[8:1],6,
{8}4/7h[8:1],3,6/2h[8:1],7,3/8h[8:1],2,6/1h[8:1],5,
{16}3/4,,5/6,,7/8,,1/2,,3,4,2,5,1,6,8,7,
{16}8,8,8,8,8,8,8,8,8w4[8:1],,,,8b,,,,
{16}1/7,,,,3/5,,4,,7,8,,1/5,,3,4,,
{16}6,6/8,,,4/6,,5,,2,1,,4/8,,6,5,,
{16}2/4,,,,1/7,,8,,3,4,,1/5,,7,8,,
{16}2,2/4,,,3/5,,4/6,,5/7,,1,2/8,,5,4/6,,
{16}2/8,,,,4/6,,5,,2,1,,4/8,,6,5,,
{16}3,1/3,,,3/5,,4,,7,8,,1/5,,3,4,,
{4}5h[8:1]/6h[8:1],2h[8:1]/3h[8:1],7h[8:1]/8h[8:1],3h[8:1]/5h[8:1],
{16}1h[8:1]/7h[8:1],,,,2/8,,4/6,,7,8,,1/5,,3,4,,
{16}2/8,,,,4/6,,5,,2,1,,7/8,,6,5,,
{16}3,1/3,,,3/5,,4,,7,8,,1/2,,3,4,,
{16}5/7,,,,2/8,,1,,6,5,,3/4,,2,1,,
{16}7,5/7,,,4/6,,3/5,,2/4,,8,1/7,,4,3/5,,
{8}6/1h[8:1],7,4/8h[8:1],3,5/2h[8:1],6,1/7h[8:1],2,
{8}8/3h[8:1],7,2/6h[8:1],3,7/4h[8:1],6,5-1[8:1],5,
{8}5/2-6[8:1],2,2/7-3[8:1],7,7/4-8[8:1],4,4/5w1[8:1],5,
{8}5b,,3/7,2/8,
{641}1w5[8:1],,,,,,,,,,,,,,,,,,,,
{639}2,,,,,,,,,,,,,,,,,,,,3,,,,,,,,,,,,,,,,,,,,
{641}4,,,,,,,,,,,,,,,,,,,,
{639}5,,,,,,,,,,,,,,,,,,,,
{641}6,,,,,,,,,,,,,,,,,,,,7,,,,,,,,,,,,,,,,,,,,
{639}8,,,,,,,,,,,,,,,,,,,,
{8}1,,
{16}2/8,,1,1,1-5[8:1],,,,4-8[8:1],,4,,1,,1,,
{16}4,5,6,7,8-4[8:1],,8,,5-1[8:1],,5,,8,,8,,
{8},1/5,7/3-7[8:1],,4-8[8:1],4,3,3,
{8},4/8,2/6-2[8:1],6,5-1[8:1],5,6,6,
{16},,7,8,7-3[8:1],,,,7/1-5[8:1],,2,,1/3,,,,
{16}6,5,4,3,,1/8,2/7,3/6,4pp6[16:3]/5qq3[16:3],,2/7,,4/5,,,,
{16},,2,1,2-6[8:1],,,,2/8-4[8:1],,7,,6/8,,,,
{8}1-5[8:1],3,1/8-4[8:1],6,8/1w5[8:1],,1b,,
{16}7/8,,4,,1/2,,5,,7-4[8:1]/8-4[8:1],7/8,7/8,,7b/8b,,,,
{16}2/6,,7,8,,2,1,,3-7[8:1],2/4,1/5,,3,,,,
{16}5/6,,3,,7/8,,2,,4/8,3/7,2/6,1/5,4q8[8:1]/8q4[8:1],,,,
{16}4^1[8:1]/8^5[8:1],,,,4/8,,,,1b/3h[16:3],,,6h[16:3],,,8,,
{16}1/2,,5,,7/8,,4,,1-5[8:1]/2-5[8:1],1/2,1/2,,1b/2b,,,,
{16}3/7,,2,1,,7,8,,6-2[8:1],5/7,4/8,,6,,,,
{16}3/4,,6,,1/2,,7,,3,3,6,6,1,1,8,8,
{16}2,7,2,7,3,6,3,6,4/5,,
{983}4/5,,,,,,,,,,,,,,,,,,,,,,,,,,,,,,,,,,,,,,,,,
{625}3/6,,,,,,,,,,,,,,,,,,,,,,,,,,
{983}2/7,,,,,,,,,,,,,,,,,,,,,,,,,,,,,,,,,,,,,,,,,
{4}1s5[8:1]/8z4[8:1],
{1}1b/8b,,,,
{16}2h[4:3],,,,1,,,1,,,8,,8h[1:1],,,,
{16}6,,,6,,,5,,,5,,,4h[1:1],,,,
{16}8,,,,7,,,7,,,6,,6h[4:3],,,,
{16}8,,,8,,,3,,3h[2:1],,,1,,,1,,
{8}7b,6,5,6,7,6^4[8:1]*^8[8:1],,,
{8},3,4,3,2,3^1[8:1]*^5[8:1],,,
{8},6,5,4,3^6[8:1],,1,1h[4:1],
{8},8,7,6,5,4^2[8:1]*^7[8:1],,,
{8},8,1,2,3^8[8:1],,7,7,
{8},8,6^1[8:1],4,2,2,,,
{8},6/2^7[8:1],5,4,3,,8,1,
{8}7h[8:3],5,3,1h[8:3],7,5,3b-7[8:1],,
{16}3/1-5[16:1],,,8-4[16:1],,,3,,2b-6[8:1],,,,2/7-4[16:1],,,5-1[16:1],
{16},,3-7[16:1],,,8,,,1h[4:1],,,,5h[4:1],,,,
{16}3-8[16:1],,,7-4[16:1],,,2,,1b-5[8:1],,,,1/8-3[16:1],,,6-1[16:1],
{16},,4-7[16:1],,,2-5[16:1],,,8-4[16:1],,,6-2[16:1],,,1,,
{16}8,,,,2b/6b,,4/8,3/7,6/2-6[16:1],,,8-4[16:1],,,1,,
{16},,3-8[16:1],,,7-4[16:1],,,1-5[16:1],,,8,,,6,,
{16}2,1,3,8,4,7,5,6,3,4,2,5,1,6,8,7,
{16}2,1,3,1,4,1,5,1,5,6,5,7,5,8,5,1,
{16}5,,,,
{641}1b,,,,,,,,,,,,,,,,,,,,
{639}2,,,,,,,,,,,,,,,,,,,,3,,,,,,,,,,,,,,,,,,,,
{641}4,,,,,,,,,,,,,,,,,,,,5,,,,,,,,,,,,,,,,,,,,
{639}6,,,,,,,,,,,,,,,,,,,,7,,,,,,,,,,,,,,,,,,,,
{641}8,,,,,,,,,,,,,,,,,,,,
{4}1,
{641}8b,,,,,,,,,,,,,,,,,,,,
{639}7,,,,,,,,,,,,,,,,,,,,6,,,,,,,,,,,,,,,,,,,,
{641}5,,,,,,,,,,,,,,,,,,,,4,,,,,,,,,,,,,,,,,,,,
{639}3,,,,,,,,,,,,,,,,,,,,2,,,,,,,,,,,,,,,,,,,,
{641}1,,,,,,,,,,,,,,,,,,,,
{8}8,
{641}1,,,,,,,,,,,,,,,,,,,,
{639}2,,,,,,,,,,,,,,,,,,,,3,,,,,,,,,,,,,,,,,,,,
{641}4,,,,,,,,,,,,,,,,,,,,
{8}5,
{641}7,,,,,,,,,,,,,,,,,,,,
{639}6,,,,,,,,,,,,,,,,,,,,5,,,,,,,,,,,,,,,,,,,,
{641}4,,,,,,,,,,,,,,,,,,,,
{8}3,
{641}2,,,,,,,,,,,,,,,,,,,,
{639}3,,,,,,,,,,,,,,,,,,,,4,,,,,,,,,,,,,,,,,,,,
{641}5,,,,,,,,,,,,,,,,,,,,
{8}6,
{641}8,,,,,,,,,,,,,,,,,,,,
{639}7,,,,,,,,,,,,,,,,,,,,6,,,,,,,,,,,,,,,,,,,,
{641}5,,,,,,,,,,,,,,,,,,,,
{8}2/4,5/7,
{16}3,6,3,6,4/5,,
{983}4/5,,,,,,,,,,,,,,,,,,,,,,,,,,,,,,,,,,,,,,,,,
{625}3/6,,,,,,,,,,,,,,,,,,,,,,,,,,
{983}2/7,,,,,,,,,,,,,,,,,,,,,,,,,,,,,,,,,,,,,,,,,
{8}1/8,
{983}1/8,,,,,,,,,,,,,,,,,,,,,,,,,,,,,,,,,,,,,,,,,
{625}2/7,,,,,,,,,,,,,,,,,,,,,,,,,,
{983}3/6,,,,,,,,,,,,,,,,,,,,,,,,,,,,,,,,,,,,,,,,,
{8}4b-1[16:1]/5b-8[16:1],,4/5,,3-6[8:1]/7-2[8:1],1/5,3b/7b,,
{16}4/8,,1/2,,6,8h[8:1],,7,1h[8:1],,8,2h[8:1],,1,3h[8:1],,
{16}6,8h[8:1],,5,1h[8:1],,4,2h[8:1],,4,3,6,5,,3/8,,
{16}1/5,,7/8,,3,1h[8:1],,2,8h[8:1],,1,7h[8:1],,8,6h[8:1],,
{16}3,1h[8:1],,4,8h[8:1],,5,7h[8:1],,5,6,3,4,,2/8,,
{16}4/6,,1h[8:1],,5,2h[8:1],,5,3h[8:1],,5,4h[8:1],,5,4,6,
{16}3,7h[8:1],,4,6h[8:1],,4,5h[8:1],,4,5,3,7h[8:1],,1h[8:1],,
{16}8-4[16:1],,,8b,,,1-5[16:1],,,1b,,,3/4,,5/6,,
{16}7-2[16:1],,,7/3-6[16:1],,,3/8-5[16:1],,,8/4-1[16:1],,,4/6,,7,,
{8}8b^5[8:1],4,8^3[8:1],4,8-4[8:1],4,8,2,
{8}1^4[8:1],5,1^6[8:1],5,1-5[8:1],5,1,7,
{8}8^5[8:1],4,8,3,1^4[8:1],5,1,6,
{16}8^5[8:1],,4,,8,,3,2,1pp3[16:1]/5pp7[16:1],,,1b/5b,,,,,
{8}2q6[8:1],2,1-5[8:1],1,8-4[8:1],8,7p3[8:1],7,
{16}8-4[8:1],,8,,1-5[8:1],,1,,2h[16:3],,,7h[16:3],,,4,,
{16}5-1[16:1],,,2b-5[16:1],,,6-2[16:1],,,1b-6[16:1],,,7,,7,,
{16}1h[8:3],8,7,6,5,4,3,2,1-5[8:1]/8-4[8:1],,3/6,,1b/8b,,,,
{8}1/7h[2:3],1,,2,,3,,4,
{8},5,,6,8h[4:1],7,6h[4:1],8,
{8}2h[1:1],8,,7,,6,,5,
{8}4h[8:3],3,3,5h[8:3],6,6,4,,
{16}6,,8/7-3[16:1],,,8-4[16:1],,,1-5[16:1],,,2-6[16:1],,,4,,
{16}3,,1/2-6[16:1],,,1-5[16:1],,,8-4[16:1],,,7-3[16:1],,,5,,
{8}6,7/8,1/2,1/2,3/4,3/4,5/6,5/6,
{16}4,5,3,6,2,7,1,8,1,1,1,1,1,1,1,1,
{641}1,,,,,,,,,,,,,,,,,,,,
{639}2v5[5000:469]/8v5[5000:469],,,,,,,,,,,,,,,,,,,,3/7,,,,,,,,,,,,,,,,,,,,
{641}4/6,,,,,,,,,,,,,,,,,,,,
{8}5,2b/8b,,6q2[8:1],6,5-1[8:1],5,
{8}4-8[8:1],4,3p7[8:1],3,4-8[8:1],4,5-1[8:1],5,
{8}6^1[8:1],6,5-1[8:1],5,4-8[8:1],4,3^8[8:1],3,
{16}4,,5,,1/6,,3/8,,1-5[16:1],5,3,7,1b,,,,
{8}1-5[16:1],8-6[16:1],1-3[16:1],8-4[16:1],1-6[8:1],8-3[16:1],1^4[16:1],8^5[16:1],
{8}1,8,
{641}1b,,,,,,,,,,,,,,,,,,,,
{639}2,,,,,,,,,,,,,,,,,,,,3,,,,,,,,,,,,,,,,,,,,
{641}4,,,,,,,,,,,,,,,,,,,,5,,,,,,,,,,,,,,,,,,,,
{639}6,,,,,,,,,,,,,,,,,,,,7,,,,,,,,,,,,,,,,,,,,
{641}8,,,,,,,,,,,,,,,,,,,,
{16}1-5[16:1],,,6-2[16:1],,,6b,,
{16}4-8[16:1],,,7b-4[16:1],,,3-7[16:1],,,8b-3[16:1],,,1,,1,,
{16}2,2,4,4,6,6,8,8,
{641}1,,,,,,,,,,,,,,,,,,,,
{639}2,,,,,,,,,,,,,,,,,,,,3,,,,,,,,,,,,,,,,,,,,
{641}4,,,,,,,,,,,,,,,,,,,,5,,,,,,,,,,,,,,,,,,,,
{639}6,,,,,,,,,,,,,,,,,,,,
{641}7,,,,,,,,,,,,,,,,,,,,
{639}8,,,,,,,,,,,,,,,,,,,,
{4}1b/5bv2[5000:469]*v8[5000:469],
{629}5b,,,,,,,,,,,,,,,,,,,,,,,,,,,,,,,,,,,,,,,,,,,,,,,,,,,,,,,,,,,,
E
&inote_6=(185.0){1},,
{2}3-8[8:1]/5-8[8:1],2-6[8:1]/6-2[8:1],
{2}2-4[8:1]/8-6[8:1],2-5[8:1]/8-5[8:1],
{2}4v1[8:1]*v7[8:1],5v2[8:1]*v8[8:1],
{2}1v4[8:1]*v7[8:1],8v2[8:1]*v5[8:1],
{8}5/3h[8:7],5,6,6,7,7,8,8,
{8}4/2h[8:7],4,5,5,6,6,7,7,
{16}4/1h[8:3],,4,,6,,6,,3,7,3,7,2,6,2,6,
{16}1,5,1,5,1-5[8:1],5,1,,1/5w1[8:1],,,,5b,,,,
{16}5/7,,6,,4/2^7[8:1],,3,,6,6,,5,,4,5,,
{16}4/6,4/6,,,5/7^2[8:1],,6,,3,3,,4,,5,4,,
{16}2/4,,3,,5/7^2[8:1],,6,,3,3,,4,,5,4,,
{16}3/5,3/5,,,4/2^7[8:1],,3,,6,6,,5,,4,5,,
{16}2/4,,3,,5/7^2[8:1],,6,,3,3,,4,,5,4,,
{16}3/5,3/5,,,4/2^7[8:1],,3,,6,6,,5,,4,5,,
{8}5/7,6,2/4,3,6/8,7,1/3,2,
{16}3/6^1[8:1],,,,2^5[8:1],,,,8,8,,2/7,,4,5,,
{16}2b/5b,,3,,4/7^2[8:1],,6,,3,3,,4,,7,5,,
{16}4/6,4/6,,,5/2^7[8:1],,3,,6,6,,5,,2,4,,
{16}2/5,,3,,4/7^2[8:1],,6,,3,3,,4,,7,5,,
{16}4/6,4/6,,,2/5,,3,,4/5,,,2/4,,,5/7,,
{16}2/5,,3,,5/7^2[8:1],,6,,3,3,,4,,7,5,,
{16}4/6,4/6,,,4/2^7[8:1],,3,,6,6,,5,,2,4,,
{8}5/7,6,2/4,3,6/8,7,1/3,2,
{16}3/6,,,,4/5,,3/6,,1-5[8:1]/8-4[8:1],2/7,3/6,,1b/8b,,,,
{8}2^5[8:1]/5-1[8:1],1/4,,,4-8[8:1]/7^4[8:1],5/8,,,
{16}3,4,3,2,3-1[8:1],4,3,2,3-5[8:1]*-7[8:1],,,,,,,,
{8}3-8[8:1]/7-5[8:1],2/6,,,2-4[8:1]/6-1[8:1],3/7,,,
{8}8-4[8:1],7,1-5[8:1],2,7-4[8:1],8,1,1,
{8}4-8[8:1]/7^4[8:1],5/8,,,2^5[8:1]/5-1[8:1],1/4,,,
{16}6,5,6,7,6-8[8:1],5,6,7,6-2[8:1]*-4[8:1],,,,,,,,
{8}2-4[8:1]/6-1[8:1],3/7,,,3-8[8:1]/7-5[8:1],2/6,,,
{8}1-5[8:1],2,8-4[8:1],7,1w5[8:1],2,,,
{16}1/7,,4,,2/8,,5,,4-8[8:1]/8-4[8:1],3/7,2/6,,,,,,
{16}2h[8:1]/6h[8:1],,,4h[8:1]/8h[8:1],,,2/6,,4-1[8:1]/8-5[8:1],3/7,2/6,,,,,,
{16}1^4[8:1]/8^5[8:1],,2/7,,1/8,,,,1/8,1/8,1/8,,2-7[8:1]/7-2[8:1],,3/6,,
{16}2^4[8:1]/7^5[8:1],,,,,,,,2/4,,,4/5,,,5/7,,
{16}2/8,,5,,1/7,,4,,1-5[8:1]/5-1[8:1],2/6,3/7,,,,,,
{16}3h[8:1]/7h[8:1],,,1h[8:1]/5h[8:1],,,3/7,,1-4[8:1]/5-8[8:1],2/6,3/7,,,,,,
{16}1/7,,4,,2/8,,5,,8,4,8,4,8-4[8:1],4,8,,
{8}8/4w8[8:1],,4,,2-5[8:1]/6-1[8:1],3/7,2b/6b,,
{1}3b/7b,,,,
{16}3h[2:3],,,,5,,,5,,,4,,4,,,,
{16}5,,,5,,,4,,4,3,,,3/5,,,,
{16}6h[2:3],,,,4,,,4,,,5,,5,,,,
{16}4,,,4,,,5,,5,6,,,4/6,,,,
{16}7-5[16:1],,4-2[16:1],,,,,,5,3,6,4,7,5,8,,
{16}2-4[16:1],,5-7[16:1],,,,,,4,6,3,5,2,4,1,,
{16}7-5[16:1],,4-2[16:1],,,,,,5,3,5,3,6,4,7<3[4:1],,
{8},3>7[4:1],,7<3[4:1],,3,,2,
{16}2-4[16:1],,5-7[16:1],,,,,,4,6,3,5,2,4,1,,
{16}7-5[16:1],,4-2[16:1],,,,,,5,3,6,4,7,5,8,,
{16}2-4[16:1],,5-7[16:1],,,,,,4,6,4,6,3,5,2<6[4:1],,
{8},6>2[4:1],,2,,8,1/8,,
{16}4/6h[8:1],,,5/7h[8:1],,,6/8,,1/8,,,,5/3h[8:1],,,4/2h[8:1],
{16},,3/1h[8:1],,,2/8,,,,,4/5,,,,5,4,
{16}5/3h[8:1],,,2/4h[8:1],,,1/3,,1/8,,,,4/6h[8:1],,,7/5h[8:1],
{16},,6/8h[8:1],,,1/7h[8:1],,,8/2h[8:1],,,1/3h[8:1],,,4/2h[8:1],,
{16},3/5,,,,,4,5,4/6h[8:1],,,7/5h[8:1],,,6h[8:1]/8h[8:1],,
{16},,4/6h[8:1],,,5/3h[8:1],,,2/4h[8:1],,,3/1h[8:1],,,2/8,,
{16}3,3,5,5,4,4,6,6,3,3,5,5,4,4,6,6,
{16}3,3,4,4,5,5,6,6,3,3,4,4,5,5,6,6,
{16}4b^1[16:1],,,,
{639}8,,,,,,,,,,,,,,,,,,,,
{641}7,,,,,,,,,,,,,,,,,,,,
{639}6,,,,,,,,,,,,,,,,,,,,
{641}5,,,,,,,,,,,,,,,,,,,,
{639}8,,,,,,,,,,,,,,,,,,,,
{641}7,,,,,,,,,,,,,,,,,,,,
{639}6,,,,,,,,,,,,,,,,,,,,
{641}5,,,,,,,,,,,,,,,,,,,,
{4}4b^1[16:1],
{639}8,,,,,,,,,,,,,,,,,,,,
{641}7,,,,,,,,,,,,,,,,,,,,
{639}6,,,,,,,,,,,,,,,,,,,,
{641}5,,,,,,,,,,,,,,,,,,,,
{639}8,,,,,,,,,,,,,,,,,,,,
{641}7,,,,,,,,,,,,,,,,,,,,
{639}6,,,,,,,,,,,,,,,,,,,,
{641}5,,,,,,,,,,,,,,,,,,,,
{8}4b,
{639}1b,,,,,,,,,,,,,,,,,,,,
{641}2,,,,,,,,,,,,,,,,,,,,
{639}3,,,,,,,,,,,,,,,,,,,,
{641}4,,,,,,,,,,,,,,,,,,,,
{8}5,
{639}8b,,,,,,,,,,,,,,,,,,,,
{641}7,,,,,,,,,,,,,,,,,,,,
{639}6,,,,,,,,,,,,,,,,,,,,
{641}5,,,,,,,,,,,,,,,,,,,,
{8}4,
{639}1b,,,,,,,,,,,,,,,,,,,,
{641}2/8,,,,,,,,,,,,,,,,,,,,
{639}3/7,,,,,,,,,,,,,,,,,,,,
{641}4/6,,,,,,,,,,,,,,,,,,,,
{8}5,4/5,
{8}4/5,4,
{16}5,4,6,3,7,,
{639}1b,,,,,,,,,,,,,,,,,,,,
{641}8,,,,,,,,,,,,,,,,,,,,
{639}7,,,,,,,,,,,,,,,,,,,,
{641}6,,,,,,,,,,,,,,,,,,,,
{8}5,
{639}8b,,,,,,,,,,,,,,,,,,,,
{641}1,,,,,,,,,,,,,,,,,,,,
{639}2,,,,,,,,,,,,,,,,,,,,
{641}3,,,,,,,,,,,,,,,,,,,,
{4}4^1[8:1]/5^8[8:1],4-8[8:1]/5-1[8:1],4/5,2b/7b,
{16}1/8,,3/6,,1-5[16:1],8-4[16:1],,1,8,,1,1,,7-5[16:1],8-4[16:1],,
{16}7,8,,7,7,,2-4[16:1],1-5[16:1],,2,1,,2,,1/7,,
{16}2/8,,3/6,,8-4[16:1],1-5[16:1],,8,1,,8,8,,2-4[16:1],1-5[16:1],,
{16}2,1,,2,2,,7-5[16:1],8-4[16:1],,7,8,,7b,,2b/8b,,
{16}1/7,,3/6,,1-5[16:1],8-4[16:1],,1,8,,1,1,,7-4[16:1],8-3[16:1],,
{16}7,8,,7,7,,2-5[16:1],1-6[16:1],,2,1,,2,,1/7,,
{16}3/4h[16:3],,,1,,,6/5h[16:3],,,8,,,4/5,,3/6,,
{16}2/1h[16:3],,,4,,,7/8h[16:3],,,5,,,1b/8b,,2b/7b,,
{8}1-6[8:1]/6-1[8:1],6/1-4[8:1],,,5^2[8:1]*^8[8:1],5,5,,
{8}3-8[8:1]/8-3[8:1],3/8-5[8:1],,,4^1[8:1]*^7[8:1],4,4,,
{8}1-6[8:1]/6-1[8:1],6/1-4[8:1],,,5^2[8:1]*^8[8:1],5,5,,
{16}3/8,,2/7,,1/6,,4,5,4,,,2b/7b,,,,,
{8}3-8[8:1]/8-3[8:1],3/8-5[8:1],,,4^1[8:1]*^7[8:1],4,4,,
{16}1/6,,1/6,,3/8,,3/8,2/7,1/6,,,4/7,,,1/5,,
{16}5/7h[8:1],,,4/2h[8:1],,,6/8h[8:1],,,3/1h[8:1],,,1/8,,1/3h[8:1],,
{16},8/6h[8:1],,,2/4h[8:1],,,7/5h[8:1],,,2/7,,4/5,,,,
{1}2b/7h[1:3],
{16},,,,1b,,,,,,4,,,5,,,
{16}4,,,6,,,3,,,,,,,,,,
{8}1-4[8:1],5-8[8:1],,,,,4/5,,
{16}4/5,,7/5h[8:1],,,2/4h[8:1],,,8/6h[8:1],,,1/3h[8:1],,,1/8,,
{16}1/8,,3/1h[8:1],,,6/8h[8:1],,,4/2h[8:1],,,5/7h[8:1],,,2/7,,
{8}4/8,4/8,3/7,3/7,2/6,2/6,1/5,1/5,
{16}1,5,2,6,3,7,4,8,
{639}5b,,,,,,,,,,,,,,,,,,,,
{641}4,,,,,,,,,,,,,,,,,,,,
{639}3,,,,,,,,,,,,,,,,,,,,
{641}2,,,,,,,,,,,,,,,,,,,,
{639}1,,,,,,,,,,,,,,,,,,,,
{641}8,,,,,,,,,,,,,,,,,,,,
{639}7,,,,,,,,,,,,,,,,,,,,
{641}6,,,,,,,,,,,,,,,,,,,,
{639}5,,,,,,,,,,,,,,,,,,,,
{641}4,,,,,,,,,,,,,,,,,,,,
{639}3,,,,,,,,,,,,,,,,,,,,
{641}2,,,,,,,,,,,,,,,,,,,,
{639}1,,,,,,,,,,,,,,,,,,,,
{641}8,,,,,,,,,,,,,,,,,,,,
{639}7,,,,,,,,,,,,,,,,,,,,
{641}6,,,,,,,,,,,,,,,,,,,,
{8}5bv2[8:1]*v8[8:1],,5b,,1v4[8:1]*v6[8:1],2/8,1,,
{8}4-8[8:1]/8-4[8:1],8/4^1[8:1],,,8-4[8:1],1/7,3/8,2,
{8}1-5[8:1]/5-1[8:1],1/5^8[8:1],,,1-5[8:1],2/8,1/6,7,
{16}1/8,,2/7-4[8:1],,3/6,,2b/7b,,3,,,3/6,3/6,,,,
{8}1v4[8:1],4^1[8:1],6,7,8v5[8:1],5^8[8:1],2,3,
{8}4^1[16:1],4,
{639}8,,,,,,,,,,,,,,,,,,,,
{641}7,,,,,,,,,,,,,,,,,,,,
{639}6,,,,,,,,,,,,,,,,,,,,
{641}5,,,,,,,,,,,,,,,,,,,,
{639}8,,,,,,,,,,,,,,,,,,,,
{641}7,,,,,,,,,,,,,,,,,,,,
{639}6,,,,,,,,,,,,,,,,,,,,
{641}5,,,,,,,,,,,,,,,,,,,,
{16}4b/8h[8:1],,,5/1h[8:1],,,3/6,,
{16}7/5h[8:1],,,6/8h[8:1],,,2/4h[8:1],,,3/1h[8:1],,,2/7,,4/5,,
{16}4/2h[8:1],,,1/3h[8:1],,,5/7h[8:1],,
{639}5,,,,,,,,,,,,,,,,,,,,
{641}4,,,,,,,,,,,,,,,,,,,,
{639}3,,,,,,,,,,,,,,,,,,,,
{641}2,,,,,,,,,,,,,,,,,,,,
{639}1,,,,,,,,,,,,,,,,,,,,
{641}8,,,,,,,,,,,,,,,,,,,,7,,,,,,,,,,,,,,,,,,,,
{639}6,,,,,,,,,,,,,,,,,,,,
{4}5bv2[8:1]*v8[8:1],
{8}5b,,
E
