&title=[宴] Hand in Hand
&artist=livetune
&wholebpm=128
&demo_seek=76.8
&demo_len=14.33
&lv_7=協
&inote_7=(128.0){1},
{4}4,4,4,4,
{4}4/5,4/5,4/5,4/5,
{4}3/4/5,3/4/5,3/4/5,3/4/5,
{4}3/4/5/6,3/4/5/6,3/4/5/6,3/4/5/6,
{4}2/3/4/5/6,2/3/4/5/6,2/3/4/5/6,2/3/4/5/6,
{4}2/3/4/5/6/7,2/3/4/5/6/7,2/3/4/5/6/7,2/3/4/5/6/7,
{4}1/2/3/4/5/6/7,1/2/3/4/5/6/7,1/2/3/4/5/6/7,1/2/3/4/5/6/7,
{4}8/1h[4:5]/7h[4:7]/2h[4:9]/6h[4:11]/3h[4:13]/5h[4:15]/4h[4:17],8,8,8b,
{4}8,8,1/8,1/8,
{4}1/7/8,1/7/8,1/2/7/8,1/2/7/8,
{4}1/2/6/7/8,1/2/6/7/8,1/2/3/6/7/8,1/2/3/6/7/8,
{4}1/2/3/5/6/7/8,1/2/3/5/6/7/8,1/2/3/4/5/6/7/8,1/2/3/4/5/6/7/8,
{8}1/3/5/7,1/3/5/7,1/3/5/7,,2/4/6/8,2/4/6/8,2/4/6/8,,
{8}1/3/5/7,1/3/5/7,1/3/5/7,1/3/5/7,2/4/6/8,2/4/6/8,2/4/6/8,2/4/6/8,
{8}1/3/5/7,1/3/5/7,2/4/6/8,2/4/6/8,1/3/5/7,1/3/5/7,2/4/6/8,2/4/6/8,
{4}2b/4b/6b/8b/1h[16:3]/3h[16:3]/5h[16:3]/7h[16:3],1b/3b/5b/7b/2h[16:3]/4h[16:3]/6h[16:3]/8h[16:3],2b/4b/6b/8b/1h[16:3]/3h[16:3]/5h[16:3]/7h[16:3],1b/2b/3b/4b/5b/6b/7b/8b,
{4}3/5/7/1h[4:3],4/6/8/2h[4:3],5/7/3h[4:3],6/8/4h[4:3],
{4}1/7/5h[4:3],2/8/6h[2:1],1/3/7h[4:1],2/4/8,
{4}2/4/6/8h[4:3],1/3/5/7h[4:3],2/4/6h[4:3],1/3/5h[4:3],
{4}2/8/4h[4:3],1/7/3h[2:1],6/8/2h[4:1],1/5/7,
{4}4/5/8/1h[4:3],2/6/7/3h[4:3],4/8/5h[4:3],2/6/7h[4:3],
{4}1/4/8h[4:3],2/3/6h[2:1],1/5/4h[4:1],2/3/7,
{4}1/4/5/8h[4:3],2/3/7/6h[4:3],1/5/4h[4:3],3/7/2h[4:3],
{4}5/8/1h[4:3],6/7/3h[2:1],4/8/5h[4:1],2/6/7b,
{16}1/3/5/7/4h[4:1]/8h[4:1]/2h[8:7]/6h[8:7],,,,1/3/5/7,,4/8,,1/3/4/5/7/8,,,4/8,1/3/5/7,,4/8,,
{8}1/3/5/7/4h[2:1]/8h[2:1]/2h[8:7]/6h[8:7],,1/3/5/7,,1/3/5/7,3/7,1/3/4/5/7/8,3/7,
{16}2/4/6/8/3h[4:1]/7h[4:1]/1h[8:7]/5h[8:7],,,,2/4/6/8,,3/7,,2/3/4/6/7/8,,,3/7,2/4/6/8,,3/7,,
{4}2/4/6/8/3h[2:1]/7h[2:1]/1h[8:7]/5h[8:7],2/4/6/8,2/4/6/8,2/3/4/6/7/8,
{16}1/3/5/7/2h[4:1]/6h[4:1]/4h[8:7]/8h[8:7],,,,1/3/5/7,,2/6,,1/2/3/5/6/7,,,2/6,1/3/5/7,,2/6,,
{8}1/3/5/7/2h[2:1]/6h[2:1]/4h[8:7]/8h[8:7],,1/3/5/7,,1/3/5/7,1/5,1/2/3/5/6/7,1/5,
{8}2/4/6/8/1h[4:1]/5h[4:1]/3h[8:7]/7h[8:7],,2/4/6/8,1/5,2/4/6/8/1h[4:1]/5h[4:1],,2/4/6/8,1/5,
{4}2/4/6/8/1h[2:1]/5h[2:1]/3h[4:3]/7h[4:3],2/4/6/8,2/4/6/8,1/2/4/5/6/8,
{4}2/3/4/5/6/7/8/1h[2:7],3/4/5/6/7/8/2h[4:13],4/5/6/7/8/3h[1:3],5/6/7/8/4h[4:11],
{4}6/7/8/5h[2:5],7/8/6h[4:9],8/7h[1:2],8h[4:7],
{4}1/3/5/7,2/4/6/8,1/3/5/7,2/4/6/8,
{4}1/3/5/7,2/4/6/8,,1h[4:9]/2h[8:19]/3h[2:5]/4h[8:21]/5h[4:11]/6h[8:23]/7h[1:3]/8h[8:25],
{8}2/4/6/8,2/4/6/8,2/4/6/8,2/4/6/8,1/3/5/7,1/3/5/7,1/3/5/7,1/3/5/7,
{8}2/4/6/8,2/4/6/8,1/3/5/7,1/3/5/7,2/4/6/8,2/4/6/8,1/3/5/7,1/3/5/7,
{8}2/4/6/8,1/3/5/7,2/4/6/8,1/3/5/7,2/4/6/8,1/3/5/7,2/4/6/8,1/3/5/7,
{4}1b/3b/5b/7b/2h[16:3]/4h[16:3]/6h[16:3]/8h[16:3],2b/4b/6b/8b/1h[16:3]/3h[16:3]/5h[16:3]/7h[16:3],1b/3b/5b/7b/2h[16:3]/4h[16:3]/6h[16:3]/8h[16:3],1b/2b/3b/4b/5b/6b/7b/8b,
{4}3/5/7/1h[4:7],5/7/3h[2:3],7/5h[4:5],7h[1:1],
{4}2/4/6/8v2[2:1]*-4[2:1]*v6[2:1],8,8,8,
{4}2/4/6/8h[4:7],2/4/6h[2:3],2/4h[4:5],2h[1:1],
{4}3/5/7/1v3[2:1]*-5[2:1]*v7[2:1],1,1,1,
{4}1/3/7/5h[4:7],1/3/7h[2:3],3/1h[4:5],3h[1:1],
{4}2/6/8/4v2[2:1]*v6[2:1]*-8[2:1],4,4,4,
{4}2/6/8/4h[4:7],6/8/2h[2:3],6/8h[4:5],6h[1:1],
{4}1/3/7/5-1[2:1]*v3[2:1]*v7[2:1],5,5,5b,
{4}1/3/5/7h[4:3],3/5/1h[4:3],5/3h[2:1],5h[4:1],
{4}2/4/6/8/7v2[2:1]*v4[2:1]*v6[2:1]*v8[2:1],1/3/5/7,1/3/5/7,1/3/5/7,
{4}4/6/8/2h[4:3],4/6/8h[4:3],4/6h[2:1],4h[4:1],
{4}1/3/5/7/2v1[2:1]*v3[2:1]*v5[2:1]*v7[2:1],2/4/6/8,2/4/6/8,2/4/6/8,
{4}2/4/8/6h[4:3],2/4/8h[4:3],4/2h[2:1],4h[4:1],
{4}1/3/5/7/6v1[2:1]*v3[2:1]*v5[2:1]*v7[2:1],2/4/6/8,2/4/6/8,2/4/6/8,
{4}1/5/7/3h[4:3],5/7/1h[4:3],5/7h[2:1],5h[4:1],
{4}2h[16:3]/4h[16:3]/6h[16:3]/8h[16:3]/3v2[2:1]*v4[2:1]*v6[2:1]*v8[2:1],3/1h[16:3]/5h[16:3]/7h[16:3],3/1h[16:3]/5h[16:3]/7h[16:3],1b/3b/5b/7b,
{2}1^2[16:1]/3^4[16:1]/5^6[16:1]/7^8[16:1],2^3[16:1]/4^5[16:1]/6^7[16:1]/8^1[16:1],
{2}1^2[16:1]/3^4[16:1]/5^6[16:1]/7^8[16:1],2^3[16:1]/4^5[16:1]/6^7[16:1]/8^1[16:1],
{2}2^1[16:1]/4^3[16:1]/6^5[16:1]/8^7[16:1],1^8[16:1]/3^2[16:1]/5^4[16:1]/7^6[16:1],
{2}2^1[16:1]/4^3[16:1]/6^5[16:1]/8^7[16:1],1^8[16:1]/3^2[16:1]/5^4[16:1]/7^6[16:1],
{8}1^2[16:1]/5^6[16:1],3^4[16:1]/7^8[16:1],,,2^3[16:1]/6^7[16:1],4^5[16:1]/8^1[16:1],,,
{8}3^2[16:1]/7^6[16:1],1^8[16:1]/5^4[16:1],,,2^1[16:1]/6^5[16:1],4^3[16:1]/8^7[16:1],,,
{16}1/5,2/6,3/7,4/8,1/5,2/6,3/7,4/8,
{639}1/5,,,,,,,,,,,,,,,,,,,,
{641}2/6,,,,,,,,,,,,,,,,,,,,
{639}3/7,,,,,,,,,,,,,,,,,,,,
{641}4/8,,,,,,,,,,,,,,,,,,,,
{639}1/5,,,,,,,,,,,,,,,,,,,,
{641}2/6,,,,,,,,,,,,,,,,,,,,
{639}3/7,,,,,,,,,,,,,,,,,,,,
{641}4/8,,,,,,,,,,,,,,,,,,,,
{639}1/5,,,,,,,,,,,,,,,,,,,,
{641}2/6,,,,,,,,,,,,,,,,,,,,
{639}3/7,,,,,,,,,,,,,,,,,,,,
{641}4/8,,,,,,,,,,,,,,,,,,,,
{639}1/5,,,,,,,,,,,,,,,,,,,,
{641}2/6,,,,,,,,,,,,,,,,,,,,
{639}3/7,,,,,,,,,,,,,,,,,,,,
{641}4/8,,,,,,,,,,,,,,,,,,,,
{4}1h[16:3]/5h[16:3],1h[16:3]/3h[16:3]/5h[16:3]/7h[16:3],1h[16:3]/2h[16:3]/3h[16:3]/4h[16:3]/5h[16:3]/6h[16:3]/7h[16:3]/8h[16:3],1v3[1:4]/2v4[1:4]/3v5[1:4]/4v6[1:4]/5v7[1:4]/6v8[1:4]/7v1[1:4]/8v2[1:4],
{1}1b/2b/3b/4b/5b/6b/7b/8b,,,,,
E
