&title=shake it!
&artist=emon
&wholebpm=130
&demo_seek=76
&demo_len=16.4
&lv_1=2
&lv_2=5
&lv_3=7+
&lv_4=9
&lv_5=12
&des_4=はっぴー
&des_5=Techno Kitchen
&inote_1=(130.0){1},,,,,,
{1}3,
{1}3,
{1}4,
{1}5-8[4:3],,
{1}1,
{1}8,
{1}8,
{1}1,
{1}8,
{1}7,
{1}6,
{1}5,
{1}4,
{1}3,
{1}2,
{1}1h[1:1],,
{1}8h[1:1],,
{1}1,
{1}2,
{1}3,
{1}4,
{1}5,
{1}6,
{1}7,
{1}8,
{1}1-4[4:3],,
{1}5-8[4:3],,
{1}7-3[4:3],,
{769}2?-6[4:3],,,2$,,,,,,,,,,,,,,,,,,,,,,,,,,,,,,,,,,,,,,,,,,,,,,,,,,,,,,,,,,,,,,,,,,,,,,,,,,,,,,,,,,,,,,,,,,,,,,,,,,,,,,,,,,,,,,,,,,,,,,,,,,,,,,,,,,,,,,,,,,,,,,,,,,,,,,,,,,,,,,,,,,,,,,,,,,,,,,,,,,,,,,,,,,,,,,,,,,,,,,,,,,,,,,,,,,,,,,,,,,,,,,,,,,,,,,,,,,,,,,,,,,,,,,,,,,,,,,,,,,,,,,,,,,,,,,,,,,,,,,,,,,,,,,,,,,,,,,,,,,,,,,,,,,,,,,,,,,,,,,,,,,,,,,,,,,,,,,,,,,,,,,,,,,,,,,,,,,,,,,,,,,,,,,,,,,,,,,,,,,,,,,,,,,,,,,,,,,,,,,,,,,,,,,,,,,,,,,,,,,,,,,,,,,,,,,,,,,,,,,,,,,,,,,,,,,,,,,,,,,,,,,,,,,,,,,,,,,,,,,,,,,,,,,,,,,,,,,,,,,,,,,,,,,,,,,,,,,,,,,,,,,,,,,,,,,,,,,,,,,,,,,,,,,,,,,,,,,,,,,,,,,,,,,,,,,,,,,,,,,,,,,,,,,,,,,,,,,,,,,,,,,,,,,,,,,,,,,,,,,,,,,,,,,,,,,,,,,,,,,,,,,,,,,,,,,,,,,,,,,,,,,,,,,,,,,,,,,,,,,,,,,,,,,,,,,,,,,,,,,,,,,,,,,,,,,,,,,,,,,,,,,,,,,,,,,,,,,,,,,,,,,,,,,,,,,,,,,,,,,,,,,,,,,{1},
{2}7,7,
{1}8,
{2}1,1,
{1}2,
{1}3h[2:1],
{1}4h[2:1],
{2}5,5,
{2}6,6b,
{2}7,7,
{1}8,
{2}1,1,
{1}2,
{1}7h[2:1],
{1}6h[2:1],
{2}5,5,
{2}4,4,
{2}3,3,
{2}2,2,
{2}1,1,
{2}8,8b,
E
&inote_2=(130.0){1},,,,,,,,
{2}1/7,3/5,
{1}5/4,
{4}4,4,4,,
{4}5,5,5,,
{2}8,4,
{2}8,4,
{2}2,7,
{2}2,4,
{2}2/5,7/4,
{2}2/5,4/5,
{2}1,8,
{2}8/7,1/6,
{2}2,3/6,
{2}2,7,
{2}2,1,
{1}8-5[8:3],
{1}7h[2:1],
{4}1,8,2,,
{2}7,2,
{2}2/7,6/3,
{2}2,8,
{2}6/5,1,
{1}1-4[8:3]/8-5[8:3],
{2}6/5,3/4,
{2}1,2,
{4}1,1,1,,
{2}1/7,8/2,
{4}1,1,1,,
{2}7/1,8/2,
{4}8,8,8,,
{2}2/1,7/8,
{4}1,1,1,,
{2}1/8,1/8,
{1}7b,
{4}6,4,5,,
{2}6,3,
{4}2,1,3,,
{2}7,2,
{2}5,4,
{2}2,1,
{2}1/2,7/8,
{2}2/7,6,
{4}2,2,3,,
{2}8/7,1/2,
{4}6,6,5,,
{4}3,3,4,,
{2}4,5,
{2}7,8,
{2}1,2/8,
{2}7/2,6,
{2}1,8,
{2}7/2,1,
{2}7,4/5,
{2}2/7,1b,
E
&inote_3=(130.0){1},,
{2}7,7,
{2}2,2,
{2}6,6,
{2}3,3,
{2}6/5,6/5,
{2}4/3,4/3,
{2}7/1,6/3,
{4}4,6/3p6[5000:1259],,,
{4}7,6,5,4/3,
{4}3,2,1,8/7,
{4}8,1,8,4,
{4}7,2,7,4,
{4}6,1,3,8,
{4}2,1,2,3,
{4}5,3,4,6,
{1}1^4[2:1],
{4}3,8h[2:1],,7,
{4}6,6h[2:1],,5,
{4}1,1h[2:1],,2,
{4}3,3h[2:1],,4,
{4}2,2h[2:1],,1,
{4}2,2,3,4/3,
{4}7,7h[2:1],,8,
{4}7,7,6,6/5,
{4}5,5,6h[4:1],,
{4}7,7,8h[4:1],,
{4}4,4,3h[4:1],,
{4}2,2,1h[4:1],,
{4}8,7,8h[4:1]/6h[4:1],,
{4}1,2,3h[4:1]/1h[4:1],,
{4}5/4,5/4,6h[4:1]/3h[4:1],,
{4}2,1,8,7b,
{4}5,4,6,3,
{8}2,,1,,2,1,2,,
{4}7,8/1,2,8/1,
{8}7,,8,,7,8,7,,
{4}3,8/1,6,1/8,
{8}2,,1,,2,1,2,,
{4}1/8,7/2,1/8,3,
{1}1s5[2:1],
{4}7b,2b,5,3,
{4}4,6,4,8,
{4}1,2/1,8,8/7,
{4}2,2/7,7,2/7,
{4}6/3,5/4,4,7,
{4}8,7,5,6,
{2}2/1,8/7,
{4}2/7,6/3,6/2,7b,
{4}8,7,7,5/6,
{4}1,2,2,3/4,
{4}7,1,7,1/8,
{4}2,8,2,8/1,
{4}3,5,6,7/6,
{4}6,5,6,8,
{2}1/8,2/8,
{4}2/6,4,6/3,7,
{2}1b,8b,
{4}3/7,6,3/6,6,
{2}2b/1b,7b/8b,
{4}8/1,7/2,3/6,5/4,
{2}4^1[4:5]/5^8[625:781],{1},,
E
&inote_4=(130.0){1},,
{4}4h[1:1],6,,6,
{4}5h[1:1],3,,3,
{4}4h[1:1],6,,6,
{4}5h[1:1],3,,3,
{4}4h[1:1],6,,6,
{4}5h[4:3],3,,3,
{2}1h[4:1]/7h[4:1],3h[4:1]/5h[4:1],
{4}1/8,2/6-3[4:1],,,
{4}7/4,6,4,7b/3b,
{4}4,6,1,3,
{4}8h[2:1],1,4h[2:1],5,
{4}8h[2:1],1,4h[4:1],5,
{4}5/6h[4:1],1,4/3h[4:1],8,
{4}5/6h[4:1],1>5[4:1],,,
{2}5^3[8:1]/6^8[8:1],3^1[8:1]/4^6[8:1],
{2}5^3[8:1]/6^8[8:1],5/4,
{4}2/6,5/1,3/7,6/2,
{4}4/7,5/4,5/8,7/6,
{4}2,1/8,5/4,2/7,
{4}5/6h[4:1],2,4/3h[4:1],7,
{4}1/6,7/2,3/8,2/7,
{4}7/8h[4:1],6,5/6,2/5,
{4}7/8h[4:1],6,6/5,5/6,
{4}5/2,4/7,1/5,3,
{4}8/4h[4:1],6,1/5h[4:1],3,
{4}2/8h[4:1],7,3/5,5/6,
{4}2/6,8/3,1/6,3/4,
{4}5/6h[4:3],5,1h[4:1],,
{4}8/1,2/7,3/6,5/4,
{4}5/6,1/4,4/3,5/8,
{4}6h[4:1],4h[4:1],3h[4:1],1,
{4}2/8,3/1,2/8,4b/5b,
{4}1/6,3/4,8/3,5/6,
{8}1/2h[2:1],,3,,1,2,2,,
{4}7/3h[4:1],1,2/6h[4:1],8,
{8}8/7h[2:1],,6,,8,7,7,,
{2}4/8^3[8:1],5/1^6[8:1],
{8}1/2h[2:1],,3,,1,2,2,,
{4}1/8,3/6,8/1,3/4,
{4}8/3,5/6,3/6,5b/4b,
{4}4/2,7/5>1[4:1],,,
{4}6/4h[4:1],2-7[8:1],,,
{4}5/6h[4:1],1>5[4:1],,,
{4}2/3,7,6/7,2,
{4}1/8,3/6,1/2,5/3,
{4}4/7,4/3,5/2,6/5,
{2}1h[4:1]/6h[4:1],7h[4:1]/4h[4:1],
{4}7/2,4/5,1/6,8b/3b,
{4}5/2,2/5,6/3,7-4[8:1]/8-3[8:1],
{4},1-6[8:1]/2-5[8:1],,,
{4}2/6,7/3,5/1,2/8,
{4}7/3,6/2,8/4,7/1,
{4}1/8,3/6,2/1,3/5,
{4}4/7,4/3,2/5,6/5,
{2}7h[4:1]/1h[4:1],8b/3b,
{4}7/2,4/5,1/6,8/3,
{4}1/5h[4:1],4,8/4h[4:1],5,
{4}2/7,5/4,1/6,4/3,
{4}8/5,4/3^6[4:1],,,
{4}2/7,5/4,6/1,5/4,
{4}7/2,4,5,4^1[2:1]/5^8[2:1],,,,
E
&inote_5=(130.0){1},,
{4}6h[1:2],1,7,5,
{4}3,1,7,5,
{4}3h[1:2],8,2,4,
{4}6,8,2,4,
{4}6h[1:1],1,7,5,
{4}3h[1:1],8,2,4,
{8}6,8/1,1/8,3,6,8/1,1/8,,
{4}7h[4:1],1h[4:1],5h[4:1],3b,
{8}7/5,6,4/2,3,7/5,6,4/2,3,
{8}8/5,6,4/1,3,8/5,6,4/1,3,
{4}5^2[4:1]/8^5[4:1],5p4[4:1],,,
{4}1^4[4:1]/4^7[4:1],4q5[4:1],,,
{8}7/5,6,4/2,3,7/5,6,2/4,3,
{8}8/5,6,4/1,3,8/5,6,4/1,3,
{4}5^2[4:1]/8^5[4:1],5p4[4:1],,,
{4}1^4[4:1]/4^7[4:1],4q5[4:1],,,
{4}3h[2:1],1,4h[2:1],1,
{4}3h[2:1],1,4h[2:1],1,
{8}3h[4:1],1,4h[4:1],1,3h[4:1],1,4h[4:1],1,
{8}3h[4:1],1,4h[4:1],1,3h[4:1],1,4h[8:1],3h[8:1],
{4}6h[2:1],8,5h[2:1],8,
{4}6h[2:1],8,5h[2:1],8,
{8}6h[4:1],8,5h[4:1],8,6h[4:1],8,5h[4:1],8,
{8}6h[4:1],8,5h[4:1],8,6h[4:1],8,5h[8:1],6h[8:1],
{4}3h[2:1],1,5h[2:1],8,
{4}3h[2:1],1,5h[2:1],8,
{8}3h[4:1],1,5h[4:1],8,3h[4:1],1,5h[4:1],8,
{8}3h[4:1],1,5h[4:1],8,3h[400:99],1,5h[8:1],3h[8:1],
{4}6h[2:1],8,4h[2:1],1,
{4}6h[2:1],8,4h[2:1],1,
{8}6h[4:1],8,4h[4:1],1,6h[4:1],8,4h[4:1],1,
{8}6h[4:1],8,4h[4:1],1,6h[4:1],8,4h[8:1],6h[8:1],
{4}3-7[8:1],7-3[8:1],3-7[8:1],7-3[8:1],
{4}3-7[8:1],7-3[8:1],3-7[8:1],7-3[8:1],
{4}3>7[4:1],7-3[4:1],3<7[4:1],7-3[4:1],
{4}3>7[4:1],7-3[4:1],3,7b,
{4}6-2[8:1],2-6[8:1],6-2[8:1],2-6[8:1],
{4}6-2[8:1],2-6[8:1],6-2[8:1],2-6[8:1],
{4}6<2[4:1],2-6[4:1],6>2[4:1],2-6[4:1],
{4}6<2[4:1],2-6[4:1],6,2b,
{8}6/3,1/5,6/3,4/8,3/6,1/5,3/6,4/8h[8:5],
{8},4,3,2,1-5[8:1],,1/8b,,
{8}6/3,4/8,3/6,1/5,3/6,8/4,6/3,5/1h[8:5],
{8},5,6,7,8-4[8:1],,1b/8,,
{8}6/3,1/5,6/3,4/8,6/3,5/1,6/3,4/8h[8:5],
{8},4,3,2,1-5[8:1],,1b/8b,7,
{8}6h[4:1],8,5,2,3h[4:1],1,4,,
{8}1/7,6,8/2,3,1/7,6,8b/2b,,
{8}3/6,5/8,6/3,1/4,6/3,8/5,6/3,4/1h[8:5],
{8},4,5,6,7-3[8:1],,7b/1,,
{8}3/6,4/1,3/6,8/5,3/6,1/4,3/6,5/8h[8:5],
{8},5,4,3,2-6[8:1],,2b/8,,
{8}3/6,5/8,6/3,1/4,6/3,8/5,3/6,4/1h[8:5],
{8},4,5,6,7-3[8:1],,7b/1b,2,
{8}3h[4:1],1,4,7,
{729}6h[4:1],,,,,,,,,,,,,,,,,,,,,,,,,,,,,,,,,,,,,,,,,,,,,,,,,,,,,,,,,,,,,,,,,,,,,,,,,,,,,,,,,,,,,,,,,,,,
{8}8,
{832}5,,,,,,,,,,,,,,,,,,,,,,,,,,,,,,,,,,,,,,,,,,,,,,,,,,,,,,,,,,,,,,,,,,,,,,,,,,,,,,,,,,,,,,,,,,,,,,,,,,,,,,,,,,,,,,,,,,,,,,,,,,,,,,,,,,,,,,,,,,,,,,,,,,,,,,,,,,,,,,,,,,,,,,,,,,,,,,,,,,,,,,,,,,,,,,,,,,,,,,,,,,,,,,,
{8}1/7,6,2/8,3,1/7,6,2b/8b,7,
{8}6,7/8b,5b/6,2,3,2/1b,3/4b,,
{8}1/7,3/6,2/8,6/3,1/7,3/6,2b/8b,7,
{8}6,8b/7,6/5b,2,3,2/1b,3/4b,,
{8}7/1,5/3,8/2,6/4,1/7,3/5,
{4}2>8[2:3]/8<2[2:3],,,{1},,
E
