&title=The world is all one !!
&artist=ナムコエンジェル「アイドルマスター」
&wholebpm=167.0
&lv_1=1
&lv_2=4
&lv_3=5
&lv_4=7+
&lv_5=9
&des_4=maimai TEAM
&des_5=はっぴー
&inote_1=
(167.0){1},,,,,,,,,,,,,
{1}1,
{1}1,
{1}2h[1:1],,
{1}3,
{1}3,
{1}4,
{1}4,
{1}5/4,
{1}5b,
{1}6-3[4:3],,
{1}2,
{1}2,
{1}1-4[4:3],,
{1}5,
{1}5,
{1}6h[1:1],,
{1}7h[1:1],,
{1}8,
{1}8,
{1}1,
{1}1,
{1}2h[1:1],,
{1}3h[1:1],,
{1}4,
{1}4,
{1}5,
{1}5,
{1}6h[1:1],,
{1}5,
{1}5,
{1}4,
{1}4/3,
{1}4,
{1}4,
{1}5,
{1}6/5,
{2}7,7,
{1}7,
{2}8,8,
{1}8,
{1}1,
{1}1,
{1}8-5[4:3],,
{2}4,4,
{1}4,
{2}3,3,
{1}3,
{1}2-7[4:3],,
{1}6,
{1}6b,
{2}5,5,
{1}5,
{2}6,6,
{1}6,
{1}7-2[4:3],,
{1}3h[2:1],
{2}3,3,
{1}3,
{2}2,2,
{1}2,
{1}1,
{1}8-5[4:3],,
{1}1b,
E
&inote_2=
(167.0){1},,,,,,,,,
{2}5,5,
{1}4,
{2}3,3,
{1}2,
{1}1h[2:1],
{1}1h[2:1],
{2}8,8,
{2}7,7,
{1}6h[2:1],
{1}6h[2:1],
{2}5,5,
{2}4,4,
{1}5/4,
{1}5/4,
{1}4-1[4:3],,
{2}8,8,
{1}8,
{1}8-5[4:3],,
{2}4,4,
{1}4,
{4}5,5,,,
{1}5/6,
{4}6,6,,,
{1}6/5,
{1}7h[2:1],
{1}8h[2:1],
{1}1h[2:1],
{1}2h[2:1],
{4}3,3,,,
{1}4/3,
{4}4,4,,,
{1}4/3,
{1}4h[2:1],
{1}3h[2:1],
{1}2h[2:1],
{1}1h[2:1],
{1}8b,,
{1}1-5[4:3],,
{2}6,6,
{1}6,
{1}7-3[4:3],,
{2}2,2,
{1}2,
{2}1,8,
{1}2/7,
{2}8,1,
{1}2/7,
{2}2,3,
{2}4,5,
{1}6h[2:1],
{2}7,7b,
{4}8,8,8,,
{1}8h[2:1],
{4}1,1,1,,
{1}1h[2:1],
{4}2,2,2,,
{1}2h[2:1],
{1}3-6[4:3],,
{4}7,7,7,,
{1}7h[2:1],
{4}6,6,6,,
{1}6h[2:1],
{4}5,5,5,,
{1}5h[2:1],
{1}4-1[4:3],,
{1}8,
{2}8,8,
{1}1,
{2}1/8,8/1,
{1}8-5[4:3],,
{1}1b,
E
&inote_3=
(167.0){1},,,,,,,,
{1}2h[2:1]/7h[2:1],
{4},2,,7,
{4},1,,8,
{4},2-7[16:9],,,{1},
{2}2,1,
{1}8^5[16:9],
{2}4,3,
{2}2,1,
{2}4/5,8/1,
{2}2/1,7/8,
{4}7,8,1,2,
{2}1/2,7/8,
{4}7/8,,,4^1[16:9],{1},
{2}1b,2,
{2}3,4,
{2}5,6,
{2}7,8,
{1}2^7[16:9],
{2}6,5,
{2}4,3,
{1}2,
{4},2,2,,
{2}3,4,
{4},7,7,,
{2}6,5,
{4},4,,3,
{4},2,,1,
{4},8,,7,
{1}8/1,
{4},7,7,,
{1}2-7[16:9],
{4},7,7,,
{2}6,5,
{4},4,,3,
{4},2,,1,
{2}8,1,
{2}8,1/8,
{2}7/2,2/1,
{2}2/3,4/3,
{1}5-8[16:9],
{2}1,2,
{1}6-2[16:9],
{2}8,7b,
{2}7,8,
{2}1,2,
{4}3,,4,4-8[16:9],{1},
{4}1,2,3,,
{1}6-3[16:9],
{4}1,2,3,,
{1}3-6[16:9],
{2}7h[4:1],8h[4:1],
{2}2h[4:1],1h[4:1],
{1}8^5[16:9],
{2},1b,
{2}1,1,
{4}1,2,3,,
{2}8,8,
{4}8,7,6,,
{2}4,3,
{1}2-7[16:9],
{2}1,2,
{2}3,4,
{1}4-8[16:9],
{4}1,1,2,,
{2}7,2,
{1}2/7,
{2}5/4,1/8,
{2}8/7,2/1,
{4}2,1,8,7,
{4},8/7,,8h[2:1]/7h[2:1],{1},
{4},1/2,,2h[2:1]/1h[2:1],
{4},,,5^8[16:9],
{4},,,1b,
{1}1^4[16:9],
{2},4/5,
{1}8b/1b,
E
&inote_4=
(167.0){1},,,,,,,,,
{2}2/7,3/6,
{4}4/5,3/6,2/7,1/8,
{8}1,,8,,1,,8,8,
{8},7/2,,5/4,4/5,,,,
{8}3-8[4:1],,,,,,,4/7,
{2},2/7,
{2}3/6,3/6,
{4}2/7,3/6,,,
{4}4/5,4^1[4:1]/5^8[4:1],,,
{4}1/6,2/7,3/2,2/7,
{4}6,8,7,8,
{8}4,,3^1[4:1]/5^7[4:1],,,,,3/8,
{8},3/7,,,2/7,,,2-4[16:3]/7-5[16:3],
{8},,,,,2b,2b,,
{2}5/2,7/4,
{4}2/5,4/7,5/2,,
{2}3/7,6/2,
{4}7/3,6/2,7/3,,
{4}6-3[4:1],,,8/2,
{4},1/7,,2/8,
{4},1/7,,6,
{4}4,5,3,4,
{4},5,2,,
{1}2-6[4:1],
{4},5,2,,
{1}1-4[4:1],
{4},3/1,,7/6,
{4},3/1,,7/6,
{4},7/4,,7/2,
{4}2^4[4:1]/7^5[4:1],,,2/7,
{4},1,1,,
{1}3/2-6[4:1],
{4},6/3,6/3,,
{4}7/2,,8/1,7/2,
{4},5/2,,7/4,
{4},2/5,,4/7,
{4}6-3[4:1],,,4,
{4}5,,3/6,2/7,
{2},3/8,
{4}2/3,1/3,8/7,6/7,
{4},4-2[4:1]/5-7[4:1],,,
{2}3/6,7/2,
{4}4^2[4:1]/5^7[4:1],,,1/8,
{2}2/7,7b,
{1}3h[2:1]/5^7[4:1],
{1}1h[2:1]/4^2[4:1],
{8}4^2[4:1]/5^7[4:1],,,,,,,4-8[4:1],{1},
{8}8,,3,,8/3,,,7-2[4:1],{1},
{8}1,,6,,1,,1/6,1/6,
{4},7/1,,7/2,
{4}3h[2:1],,6,6,
{4}6h[2:1],,3,3/6,
{4}4/5,4-1[8:3]/5-8[8:3],,,
{2},2b/7b,
{1}2-7[4:1],
{4}2/7,4/5,7/2,,
{4}5,7,6,8,
{4}3/1,2/1,3/1,,
{4}8,2,2,,
{8}2/3,,,7/6,,,,,
{2}2/1,5/4,
{1}5-2[16:5],
{4}2,3-8[16:5],,,
{1}4^2[16:5]/5^7[16:5],
{2}3/6,3/6,
{8}2h[4:1]/7h[4:1],,,3/6,,,,,
{1}4-1[16:5]/5-8[16:5],
{4}2/7,3/6,2/7,4/5,
{4}3/6,7/3,8/3,7/3,
{8}4^2[16:5]/6^8[16:5],,,,,,,8/3,
{8},8b/2b,,,,,,,
{8}3^1[16:5]/5^7[16:5],,,,,,,6/1,
{8},1b/7b,,,,,,4^1[16:5]/5^8[16:5],
{8},,,,,1b,8b,,
{4}4-2[16:3]/5-7[16:3],,,1^4[16:3]/8^5[16:3],
{4},,6/3,1/8,
{1}7b/2b,
E
&inote_5=
(167.0){1},,,,,
{4}2h[4:3],,,1^6[2:1],{1},
{2},2/7,
{4}6/3,5/4,7/2,,
{4}4/5,2/7p4[8:3],,,
{4}4/5,3/6,2/7,1/8,
{8}2-7[4:1],,,,,,,2h[8:3]/7h[8:3],
{4},,4/5,4/5,
{8}6/3,7/2,1^6[8:1]/8^3[8:1],,,,,3h[4:1],
{8},6,4^7[8:1]/5^2[8:1],,,,,,
{1}6<4[8:3],
{8}5-1[4:1],,,,,8b,7b,,
{8}4/2q7[4:1],,,8,8,,1/6,,
{8}5/7p2[4:1],,,1,1,,3/8,,
{2}3-1[8:1]/6-8[8:1],1v4[8:1]/8v5[8:1],
{8}2/8,,4^2[8:1]/6^8[8:1],,,,,3/8,
{8},1/2,,8,8,,3/6,4^1[4:1]/5^8[4:1],
{8},,,,,7b,8b,,
{8}2/4,,3,3,,6,,5/7,
{8},3,,2/4,,7,7,,
{8}8/6,,7,7,,2,,1/3,
{8},7,,6/8,,2,2,,
{8}8/1,,6,6,,5/4,,4,
{8},1/7,,5,,8/2,,7,
{8}7,,2,2,,5/6,,3/4,
{8},4/5,,3/6,,8/1,2/7,,
{4}4/5,6h[2:3],2-7[8:3],,
{8},,,,8,8,8,,
{4}5/4,3h[2:3],7-2[8:3],,
{8},,,,1,1,1,,
{4}5/7,3,2/4,6,
{4}7/5,3,4/2,6,
{4}7,8h[4:1],3,1^3[4:1]/8^6[4:1],
{8},,,7/8,,1b,2b,,
{4}2/7,5/4,6/3h[4:5],2q6[4:1],
{4},,7,7,
{4},4/5,6/3,,
{4}2h[4:1]/8h[4:1],,3/7,2/8,
{4}7/5,3,4/2,8,
{4}1b,3^6[4:1],,,
{4}4/7,3,5/2,6,
{4}4/7,3,2/5,6,
{8}2/7,1v3[4:1]/8v6[4:1],,,,,,,
{4}2/7,3h[4:1],5-8[8:1],,
{8}1h[2:1],,,2,2,,8/3,,
{8}5h[2:1],,,6,6,,7/4,,
{8}8h[2:1],,,7,7,,6/1,,
{8}4h[2:1],,,3,3b,,2/5,,
{8}4^7[4:1],,,8,8,,4/3,,
{8}5^2[4:1],,,1,1,,5/6,,
{4}4^1[4:1]/5^8[4:1],,,3h[1:1],
{1}4<8[2:1],
{8}4/3,,7^4[8:1]/8^3[8:1],,,,,1h[4:1],
{8},3h[4:1],,5h[4:1],,7,7/8,,
{8}6/5,,1^6[8:1]/2^5[8:1],,,,,8h[4:1],
{8},6h[4:1],,4h[4:1],,2,2/1,,
{4}7p4[2:1],,,2,
{4}2q5[2:1],,,7,
{8}2/8,,1/7,,3,4,5,6,
{8},8/1,,2/7,4-7[8:1]/5-2[8:1],,,,
{4}1h[4:1],2-7[4:1],,,
{1}2v3[4:1]/6v7[4:1],
{1}3q6[2:1],
{4}3/8h[2:1],5,3h[1:1],,
{4}8,1,2,2q7[4:1]/3^6[4:1],
{8},,,7/8,,7^2[8:3],
{4}7^4[4:1],{1},
{4}1b,2b/7b,3b/6b,,
{8}4,4,5-1[8:1],5,,,,,
{4}7/2,5/4,7/2,,
{8}7/2,2,7,3,6/3,,4^2[4:1]/5^7[4:1],,
{8},,,3/6,,1,1,,
{4}2^4[8:1]/7^5[8:1],,8b/1b,3,
{4}4/7,3,2/5,6,
{4}7/3h[4:3],4,1,4,
{8}8/2,,4^2[8:1]/6^8[8:1],,,,,3/8,
{8},1/2,,5,5/4,,,,
{8}1/7,,3^1[8:1]/5^7[8:1],,,,,1/6,
{8},7/8,,4,4/5,,6/3,4^1[4:1]/5^8[4:1],
{8},,,,,7b,8b,,
{8}1,2,3,8,7,6,2,3,
{8}4,7,6,5,4/3,,6/5,,
{1}7b/2b,
E
