&title=電車で電車でGO!GO!GO!GC! -GMT remix-
&artist=COSIO(ZUNTATA/TAITO)/沢城千春「電車でGO!」
&wholebpm=134
&demo_seek=16
&demo_len=10.5
&lv_1=1
&lv_2=5
&lv_3=7+
&lv_4=9
&lv_5=12
&des_4=某S氏
&des_5=はっぴー
&inote_1=(134.0){1},,,,,
{1}8,
{1}8,
{1}8,
{2}1,1b,
{1}8,
{1}8,
{1}8,
{2}1,1b,
{1}8h[1:1],,
{1}1,
{1}1,
{1}2,
{1}2/1,
{1}3,
{1}3,
{1}4,
{1}4/3,
{1}5,
{1}5,
{1}6,
{1}6/5,
{1}7,
{1}7,
{1}8,
{1}8/7,
{1}1h[1:1],,
{1}1-4[4:3],,
{1}8-5[4:3],,
{1}1-4[4:3],,
{1}8-5[4:3],,
{1}1,
{1}8/1,
{1}8,
{1}8,
{1}8,
{2}1,1b,
{1}8,
{1}8,
{1}8,
{2}1,1b,
{1}8,
{1}7,
{1}8,
{2}1b,1b,
{1}8,
{1}7,
{1}8,
{2}1b,1b,
{2}8,8,
{1}1-5[4:3],,
E
&inote_2=(134.0){1},,,,,
{2}8,8,
{2}1,1,
{2}8,8,
{4}1,1,1,1b,
{2}8,8,
{2}1,1,
{2}8,8,
{4}1,1,1,1b,
{1}1-5[4:3],,
{4}6,6,6,,
{4}5,5,5,,
{2}3/4,4/3,
{2}2/1,2/1,
{4}3,3,3,,
{4}4,4,4,,
{2}6/5,6/5,
{2}8/7,8/7,
{4}6,6,6/5,,
{4}3,3,3/4,,
{2}5/6,4/3,
{4}5,5,4/3,,
{4}2,2,2/1,,
{4}7,7,8/7,,
{2}1/2,8/7,
{4}1,1,8/7,,
{1}7h[2:3]/2h[2:3],,
{2}1,2,
{2}3,5/4,
{2}6,7,
{2}8,8,
{2}8,7,
{2}6,5/4,
{2}3,2,
{2}1,1,
{1}1-5[4:3],,
{4}8,8,1,1,
{4}8,8,1,1,
{4}8,8,1,1,
{4}8,8,8,8b,
{4}1,1,8,8,
{4}1,1,8,8,
{4}1,1,8,8,
{4}1,1,1,1b,
{4}2,2,3,3,
{4}4,4,5,5,
{4}6,6,7,7,
{4}1/8,8/1,8/1,1b/8b,
{4}7,7,6,6,
{4}5,5,4,4,
{4}3,3,2,2,
{4}1/8,8/1,8/1,1b/8b,
{1}1h[16:31],
{16}8h[16:15],,,,,,,,,,,,,,,,
E
&inote_3=(134.0){1},1h[4:3],
{1}8h[4:3],
{1}2h[4:3],
{1}7h[4:3],
{4}3,3,3,3,
{4}6,6,6,6,
{4}4,4,4,4,
{4}5b,5b,5b,5b,
{4}1,1,3,3,
{4}5,5,7,7,
{4}8,8,1,1,
{4}1/8,1/8,1/8,1b/8b,
{2}1-4[4:1],8-5[4:1],
{2}2-5[4:1],7-4[4:1],
{4}1,1,2h[4:1],3,
{4}8,8,7h[4:1],6,
{2}7-2[4:1],3-6[4:1],
{4}7,2,1b/8b,,
{4}1,2,3,1b,
{4}8,7,6b,,
{4}2,1b/2b,8,7b/8b,
{4}4/5,4-1[4:1]/5-8[4:1],,,
{4}1,1,5,5,
{4}3,3,7,7,
{4}4/3,3/4,6/5,5/6,
{4}1,8,1,2b/7b,
{4}4,5,4,6/3,
{4}3h[4:1],4,5-7[4:1],,
{2}2-5[4:1],7-4[4:1],
{4}3,4,5-8[4:1],,
{1}2q5[4:5],
{4},,,6b,
{1}8v6[2:1],
{1}4v2[2:1],
{1}1-3[2:1]/5-7[2:1],
{4}1,1,1,1,
{1}1s5[2:1],
{1}8z4[2:1],
{1}2z6[2:1],
{4}8,8,8,8,
{1}1h[4:7],
{1}8h[4:3],
{4}1,1,2,2,
{4}8,8,7,7,
{4}1,8,2,7,
{4}1b,3b,5b,7b,
{4}8,7,6,5,
{4}1,2,3,4,
{4}8,1,7,2,
{4}8b,6b,4b,2b,
{4}1/2,1/2,2/1,1/2,
{4}7/8,7/8,8/7,7/8,
{4}1/2,1/2,8/7,8/7,
{4}4b/3b,6b/5b,3b/4b,5b/6b,
{4}8/1,2/7,3/6,5/4,
{4}4/3,2/5,6/1,7/8,
{4}2/1,3/8,4/7,5/6,
{4}5b/6b,7b/8b,1b/2b,3b/4b,
{2}2-5[4:1],7-4[4:1],
{2}1-6[4:1],8-3[4:1],,
E
&inote_4=(134.0){1},,,,
{4}3/4,6/5,4^1[8:1]/5^8[8:1],,
{4}1/2,3,8/7,6,
{4}1/2,3,8/7,6,
{4}2/8,3,7/1,6,
{4}1b,1b,1b,1b,
{4}2/1h[4:1],3,7/8h[4:1],6,
{4}2/1h[4:1],3,7/8h[4:1],6,
{4}1/2h[4:1],3,8/7h[4:1],6,
{4}1b,1b,1b,1b,
{1}7h[4:7],
{1}3h[4:3],
{8}2,,2,,6,5,6,,
{8}7,,7,,3,4,3,,
{8}2,2,2,,7,7,7,,
{8}4,5,4,,4-1[8:1]/5-8[8:1],,,,
{8}2,,2/1,,6,5,4/6,,
{8}7,,7/8,,3,4,3/5,,
{8}2/1,,8/7,,4,5,3/6,,
{4}4^1[4:1],1q7[4:1],,,
{8}2,1,2,,7,8,7,,
{8}3,4,3,,6,5,6,,
{8}3/4,,5/6,,4,5,4,,
{4}1/2,8/7p4[4:1],,,
{8}1,7,1,7,3,4,5/2,,
{8}8,2,8,2,6,5,7/4,,
{2}2-7[8:1]/3-6[8:1],7-4[8:1]/8-3[8:1],
{4}1/5,4^1[4:1]/8^5[4:1],,,
{8}8,8,7,7,6,6,5,5,
{8}4,4,3,3,2,2,8b/1b,,
{4}1/8h[4:3],2,3,4,
{4}8/1h[4:3],7,6,5,
{4}7/8,6/1,5/2,4/3,
{4}1/2,2/1,8/7,8/7,
{8}2,1,2,1,2,1,8/3,,
{8}6,5,6,5,6,5,4/7,,
{8}4,5,3,6,2,7,1,8,
{4}1/2,3/4,5/6,7/8,
{1}7h[4:7]/2h[4:3],
{1}8b,
{4}1/2,6/5,8/7,3/4,
{4}2/1,5/6,8/7,3/4,
{4}2/8,5/6,1/7,4/3,
{4}1b,1b,1b,1b,
{4}2h[2:1],3,7h[2:1],6,
{4}2h[2:1],3,7h[2:1],6,
{4}1h[2:1],4,8h[2:1],5,
{4}1b,1b,1b,1b,
{4}1-5[8:1],6,8-4[8:1],3,
{4}1-5[8:1],6,8-4[8:1],3,
{4}1q5[8:1],7,8p4[8:1],2,
{4}2b/1b,2b/1b,2b/1b,2b/1b,
{4}1/2-5[8:1],6,8/7-4[8:1],3,
{4}1/2-5[8:1],6,8/7-4[8:1],3,
{4}2/1-6[8:1],5,7/8-3[8:1],4,
{4}1b/2b,2b/1b,2b/1b,2b/1b,
{1}8>7[4:5],
{16},,,,,,,,,,,,1,8,1,8,
E
&inote_5=(134.0){1},
{2}2^7[4:1],6^3[4:1],
{2}2^7[4:1],6^3[4:1],
{4}1h[4:1],3,8h[4:1],6-1[8:1],
{4}3-8[8:1],5p2[8:3],,,
{8}7/4,6,5,6,2/5,3,4,3,
{8}7/4,6,5,6,2/5,3,4,3,
{8}1/6,7,8,7,3/8,2,8-3[8:1],,
{4}8/1-6[8:1],1/7-4[8:1],7/2-5[8:1],2b,
{8}5/2,3,4,3,4/7,6,5,6,
{8}2/5,3,4,3,4/7,6,5,6,
{8}8/3,2,1,2,6/1,7,1-6[8:1],,
{4}1/8-3[8:1],8/2-5[8:1],2/7-4[8:1],7b,
{4}8-5[4:1],5-2[4:1],2-7[4:1],7-4[4:1],
{8}4-1[4:1],,1b,,8,7,6,5,
{8}2/4,3,4,1,5/7,6,5,8,
{8}4/2,3,4,2z6[4:1],,,,,
{8}4/3,2,8,1/8,6/5,7,1,8/1,
{16}1,8,2,7,1,8,2,,4-1[8:1]/5-8[8:1],,,,,,,,
{8}4/6,3,7,5,3/5,6,2,4,
{8}2/7,1^6[8:1]/8^3[8:1],1/8,,,,6b/3b,4,
{8}5,6,7,8,3-8[8:1]/4-7[8:1],3/4,,,
{8}3^8[8:1],8q4[8:1],4q7[8:3],,,,,,
{8}4/3,5,5/6,4,1/6,3/4,2/5,3/4,
{8}5/6,4,4/3,5,8/3,6/5,3^5[8:1],,
{4},7h[8:1]/6h[8:1],6-3[8:1],2b,
{8}1-6[8:1],6-2[8:1],2-5[8:1],,8b,8b,8b,,
{8}2h[4:1]/8<3[4:1],,,,1,1,1/2,,
{2}8h[4:1]/3^6[8:1],1h[4:1]/6^3[8:1],
{2}4-1[8:1]/5^2[8:1],6-2[8:1]/7^4[8:1],
{8}4-1[8:1],1-6[8:1],6p3[8:3],,,,,,
{8}7,8,8/7,7/8,6,1,6/1,1/6,
{16}5,,2,,5/2,,2/5,,3,4,3,4,2b/5b,,,,
{16}7,,6,,5,,4,,3,,2,,1,,7,8,
{16}7,,3,,4,,5,,6,,7,,8,,2,1,
{16}2,,6,,5,,4,,3,,2,,1,,7,8,
{8}7,5,4,3,4,5,6,,
{8}3/7,3^8[4:1]/7^4[4:1],,,,,,2,
{8}2-7[8:1],,,,,7,7q4[4:1],,
{8},,,8,8,8q6[4:1],,,
{8},,,8,8-3[8:1],,,,
{8},8,8-3[8:1],3-5[8:1],,,,,
{8}3,3>6[4:1],,,,,1b,,
{16}7/4,,6,5,6,,7,,2/5,,3,4,3,,2,,
{16}4/7,,6,5,6,,7,,2/5,,3,4,3,,2,,
{16}3/8,,2,1,2,,3,,1/6,,7,8,7-4[8:1],,,,
{4}7/2-5[8:1],2/8-3[8:1],8b/1-6[8:1],1b,
{16}5/2,,3,4,3,,2,,7/4,,6,5,6,,7,,
{16}2/5,,3,4,3,,2,,7/4,,6,5,6,,7,,
{16}6/1,,7,8,7,,6,,8/3,,2,1,2-5[8:1],,,,
{4}2/7-4[8:1],7/1-6[8:1],1b/8-3[8:1],8b,
{16}1/6,,7,8,7,,3,4,3,,7,8,7,,8/7,,
{16}3/8,,2,1,2,,6,5,6,,2,1,2,,1/2,,
{16}2/7,,6,5,6,,3,4,3,,7,8,7-4[8:1],,,,
{4}7b/3-8[8:1],3b/6-1[8:1],6b/2-5[8:1],2b,
{16}7/4,,6,5,6,,2,1,2,,6,5,6,,6/5,,
{16}5/2,,3,4,3,,7,8,7,,3,4,3,,3/4,,
{16}3/6,,2,1,2,,7,8,7,,3,4,3-8[8:1],,,,
{4}3b/7-4[8:1],7b/2-5[8:1],2b/6-1[8:1],6b,
{4}4-1[4:1],1-6[4:1],6-4[8:1],,
{16}5v2[8:1]/6q2[8:1],,,,,,,,2b,,,,1/8,8/1,,7b/2b,
E
