&title=オパ! オパ! RACER -GMT mashup-
&artist=COSIO(ZUNTATA/TAITO)「ファンタジーゾーン」「RIDGE RACER」
&wholebpm=172
&demo_seek=8
&demo_len=11.6
&lv_1=2
&lv_2=4
&lv_3=7
&lv_4=10+
&lv_5=13+
&des_4=Jack
&des_5=チャン@DP皆伝
&inote_1=(172.0){1},,,,,,
{1}2,
{1}2,
{1}2-6[4:3],,
{1}7,
{1}7,
{1}7-3[4:3],,
{1}2,
{1}2,
{1}3h[1:1],,
{1}4,
{1}4,
{1}5h[1:1],,
{1}6,
{1}6,
{1}6/5,
{1}5/6,
{1}4,
{1}4,
{1}4h[1:1]/3h[1:1],,
{1}2,
{1}2,
{1}1,
{1}1,
{1}8h[1:1],,
{1}1-5[4:3],,
{1}6,
{1}6,
{1}7,
{1}7,
{1}8,
{1}8h[1:1],,
{1}1b,
{1}2,
{1}2,
{1}3,
{1}3,
{1}4h[1:1],,
{1}5h[1:1],,
{1}6,
{1}6,
{1}6/5,
{1}6/5,
{1}7,
{1}7,
{1}8/7,
{1}8/7,
{1}8h[2:1],
{1}8,
{1}8-5[4:3],,
{1}4h[2:1],
{1}4,
{1}4-1[4:3],,
{1}8b,
{1}8,
{1}1,
{1}1,
{1}8/1,
{1}8/1,
{2}1,1,
{1}1-5[4:3],,
E
&inote_2=(172.0){1},,
{2}5,5,
{2}6,6,
{2}7,7,
{1}8b/1b,
{4}2,2,2,,
{4}3,3,3,,
{2}4/3,4/3,
{1}4h[2:1]/3h[2:1],
{4}5,5,5,,
{4}6,6,6,,
{1}7-3[2:1],,
{2}2,2,
{2}2,2,
{1}3h[1:1]/4h[1:1],,
{2}5,5,
{2}5,5,
{1}6h[1:1]/5h[1:1],,
{4}7,7,7,,
{1}7/8,
{2}6,6,
{1}6/5,
{4}4,4,4,,
{1}4/3,
{1}1h[2:3],,
{4}8,8,8,,
{4}1,1,1,,
{1}2h[2:1],
{1}3h[2:1],
{4}4,4,4,,
{4}5,5,5,,
{2}5/6,6/5,
{1}6/5,
{4}4,4,4,,
{4}3,3,3,,
{4}1,1,1,,
{1}1h[2:1],
{1}8h[2:1],
{4}1,1,1,,
{4}8,8,8,,
{1}8/1,
{1}1-4[2:1],
{1}8-5[2:1],
{2}1,1,
{4}8,8,8,,
{1}7h[2:1],
{1}6h[2:1],
{2}5,5,
{4}4,4,4b,,
{1}3-7[2:1],
{2},8,
{1}8h[1:1],,
{1}6-2[2:1],
{2},2,
{2}1,1,
{4}8/1,8/1,8/1,,
{4}7,7,7,,
{1}7/8,
{1}7-3[2:1],,
{4}2,2,2,,
{1}2/1,
{1}1h[2:3],,
{1}1b,
{4}2,2,2,,
{4}3,3,3,,
{4}4,4,4,,
{2}6/5,6/5,
{2}3/4,4/3,
{4}4,4,5,5,
{4}5h[4:3]/4h[4:3],,,,
E
&inote_3=(172.0){1},,
{1}5/4,
{1}5/4,
{1}5/4,
{8}6/3,,,1/8,,,7b/2b,,
{2}5/6,4/3,
{4}4,5,3,,
{2}2/1,7/8,
{1}1-4[2:1]/8-5[2:1],
{4}3,2,1,8,
{4}7,6,5/4,,
{2}5/6,4/3,
{1}4-2[2:1]/5-7[2:1],
{1}3^6[2:1],
{4}4,4,5,5,
{2}4/3,6/5,
{2}4/3,6/5,
{1}7^2[2:1],
{4}3,2,6,7,
{2}1/2,7/8,
{4}1/8,2/7,3/6,4/5,
{4}4,5,3,6,
{4}3,6/3,,,
{4}5/4,4/3,6/5,,
{4}6/5,4/3,4/5,,
{4}2,7,1,8,
{4}1,8/1,,,
{2}2/1,7/8,
{4}1/2,8/7,1b/8b,,
{2}3,4/3,
{2}6,6/5,
{2}7/8,1/2,
{2}4/3,5/6,
{4}7,8/7,2,1/2,
{4}3,6,2/7,,
{2}2/1,7/8,
{1}1-4[2:1]/8-5[2:1],
{4}8/7,8/7,,1/2,
{1}1/2,
{4}7,7,2,2,
{2}8/7,7/8,
{2}2/1,2/1,
{1}5h[2:1]/4h[2:1],
{4}6/3,3/6,7/2,2/7,
{1}1-4[2:1]/8-5[2:1],
{4}3,3,6,6,
{4}1,1,8,8,
{4}2,2,7,7,
{4}4,5,6/3,,
{4}6,6,3,3/6,
{4}2,2,7,2/7,
{2}6/5,3/4,
{4}3,6,2/7,,
{1}6<3[1:1],,
{1}3>6[1:1],,
{1}6p3[1:1],,
{2}2/3,6/7,
{4}7/2,7/2,1/8,1/8,
{4}2,7/2,7,7/2,
{4}1,1b/8b,,,
{2}2/1,4/3,
{4}6/5,5/6,6/5,,
{4}7,1/7,1,7/1,
{4}8,8b/1b,,,
{2}8/7,6/5,
{4}4/3,4/3,3/4,,
{4}3h[2:1]/6h[2:1],,,2b/7b,
{1}1b/8b,
{2}5/1,8/4,
{1}7h[2:1]/2h[2:1],
{4}4,5,3,6,
{4}2,7,1,8,
{8}2,2,2,,7,7,7,,
{8}2/7,,,7/2,,,2b/7b,
E
&inote_4=(172.0){1},,
{8}5/4,,,,,,,6/3,
{16}5/4,,,,,,,,,,5/3,,,4/6,,,
{8}5/4,,,,,5/4,5/4,5/4,
{8}6/3,,,1/8,,,7b/2b,,
{2}1^6[8:1],8^3[8:1],
{8}7,8,1-5[8:1],,,,,7-4[8:1],
{8}3,,,2-5[8:1],6,,,8-4[8:1],
{8}5,,,,,2,1-5[8:1],8,
{8}7,,,,,7,3,6,
{4}4-8[8:1],,7/1,6/2,
{2}3h[4:1]/5h[4:1],6h[4:1]/4h[4:1],
{1}5p2[2:1],
{1}3>6[2:1],
{4}8h[4:1],4h[4:1],6h[4:1],2h[4:1],
{8}6<3[2:1],,,,,,,2,
{8}7,,,5,4,,6/3,,
{1}4-1[16:3]/5-8[16:3],
{4}8/1,7/2,6/3,5/4,
{2}3-5[8:1],6-4[8:1],
{4}3/4,5/6,5/4,2b/7b,
{8}2,7,2,7,1,8,1,8,
{8}1-5[8:1],,,,,4,5,,
{8}4-7[16:3],,,,,5,4,,
{1}5-2[16:3],
{8}7,2,7,2,8,1,8,1,
{8}8-4[8:1],,,,,3,6,,
{2}2-6[8:1],7-3[8:1],
{4}2/1,1-4[16:3]/8-5[16:3],,,
{4}3,4,3,5/2,
{4}6,5,6,4/7,
{4}7,8/6,2,3/1,
{4}3,2/4,6,7/5,
{2}8^3[8:1],1^6[8:1],
{8}7,8,1-5[8:1],,,,,7-4[8:1],
{8}3,,,2-5[8:1],6,,,6p3[8:3],
{1}2,
{4}2z6[4:1],,,7s3[4:1],
{4},,4,3/6,
{8}7,8,1,,2,1,8,,
{2}7-4[8:1],2-5[8:1],
{8}4-1[16:3]/5-8[16:3],,,,,2,1,8-4[8:1],
{8}7,,,,,3,7,2,
{4}8-4[8:1],,5/3,6/2,
{2}1h[4:1]/7h[4:1],8b,
{2}1^4[4:1],1^6[4:1],
{2}5^2[4:1],5^8[4:1],
{8}2,3,4/1,,7,6,5/8,,
{8}2,1,8,7,8/1,,3p6[4:1],,
{1}6<3[2:1],
{4}6h[4:1],2,3h[4:1],7,
{2}1-4[8:1],8-5[8:1],
{4}3/6,7/2,8/1,,
{2}2-4[4:1],8-6[4:1],
{1}1-5[4:1],
{2}7-1[4:1],2-6[4:1],
{1}5-3[4:1],
{2}2-8[4:1],7-3[4:1],
{1}4-6[4:1],
{2}3v5[8:1],6v4[8:1],
{4}2v5[8:1],7v4[8:1],1-5[8:1],,
{8}6,2,6,2,7,3,7,3,
{8}7-3[8:1],,,,,2,8,,
{8}1-6[16:3],,,,,6,4,,
{1}5-1[16:3],
{8}3,7,3,7,2,6,2,6,
{8}2-6[8:1],,,,,7,3,,
{2}8/4,1/5,
{4}8/4,1/5,8/4,,
{4}1^4[8:3]/5^8[8:3],,,1b/5b,
{8}8b/4b,,,,,,,2,
{16}5,,,3/4,,,4,,7,,,6/5,,,7,,
{16}2,,,8/1,,,,,,,2,,3,,4,,
{8}5-1[4:1],,,,,8,7,6,
{4}8-3[8:1],1,1-6[8:1],8,
{8}5,4,6/3,,2,7,1/8,,
{8}8/3,1/2,,6/1,8/7,,7/2,8b/1b,
E
&inote_5=(172.0){1},,
{4}1/8,4,3,2,
{8}1/8,8/1,5,,6,,7,,
{4}1/8,4,3,2,
{16}2/7b,,8,1,8,,2b/7,,1,8,1,,7b/2-6[8:1],,8,8,
{16},,,,7,,,,6,,3,,5,4,,4,
{16}5,,3,,5,4,5-7[16:1],4,5-3[16:1],,,,,,1,,
{16}2/8,,,3/7,,,8,,7/1,,,2/6,,,1,,
{16}2/8,,,3h[16:5]/7h[16:5],,,,,,,3,,2,,1,,
{8}8h[2:1],,,,,6,7,8,
{16}1h[4:1],,,,2h[4:1],,,,3,,4,,5,4,,4>5[16:21]/5<4[16:21],{1},,
{8}2-6[8:1],6-2[8:1],,,7-3[8:1],3-7[8:1],,,
{4}1h[4:1],8h[4:1],7h[4:1],8-5[2:1],
{16},,,,,,,,,,,,,,2,1,
{1}2-6[2:1],
{2}1v7[8:1]/5v3[8:1],4v2[8:1]/8v6[8:1],
{2}1v4[8:1]/7v4[8:1],2v5[8:1]/8v5[8:1],
{8}4,4,5,5,3,3,6,6,
{16}2,7,2,7,2,7,2,7,1,8,1,8,1b,,,,
{8}1-5[8:1],5-1[8:1],,,7-3[8:1],3-7[8:1],,,
{16}1h[16:3],,,5,,,,,,,7,8,1,2,,8,
{16},1h[16:11],,,,,,,,,,,7,8,,7,
{16},6h[16:11],,,,,,,,,,,7b,,,,
{8}7-3[8:1],3-7[8:1],,,1-5[8:1],5-1[8:1],,,
{16}7h[16:3],,,8,,,,,,,3,,5,4,,7h[16:25],
{4}4,4,3,3,
{16}2,,2,,2,,2,,1,8,1,8,1b,,,,
{16}6,,5,,4,3,,4,5,4,,5,4,,5,,
{16}6,5,,4,1,8,7,6,8,1,2,3,8,7,6,5,
{16}6,,,7,,,8,,3,,,2,,,1,,
{16}5/4,,,3/6,,,2/7,,6/3,,,2/7,,,1/8,,
{16}1,,,,2,,,,3,,6,,4,5,,5,
{16}4,,6,,4,5,4-2[16:1],5,4-6[16:1],,,,,,2-5[8:1],,
{8}8h[16:3],,,8-4[8:1],2h[16:3],,,2-5[4:1],
{1}7h[243:46],
{16}2,1,,2,7,8,,7,,,,,,,,,
{16},6,7,8,3,2,1,8,7,6,,1,,5,4,,
{16}1,2,3,4,5,6,,2,1,8,7,,1,2,3,4,
{8}3h[8:3],,4,4,6h[8:3],,7,7,
{8}3h[8:3],,6,6,7,6,7,8,
{8}1h[2:1],,,,,4,3,2,
{16}1h[4:1],,,,2h[4:1],,,,1h[8:1],,8,,2,8,,2p3[16:9]/7q6[16:9],{1},
{16}6,5,4,3,,,6,5,4,3,,,6,5,4,,
{16}2,3,4,5,8,,3,4,7,,8,,6,7,8,1,
{16}6,,,,7,,,,6,,3,,5,4,,4,
{16}5,,3,,5,4,5-7[16:1],4,5-3[16:1],,,,,,,,
{16},,8,1,2,3,4,5,2,1,8,7,6,,2,,
{16}6,7,8,1,2,,7,,7,,7,,1,8,,8,
{16}4,5,6,7,8,,3,5,3,,6,,6,4,6,4,
{16}5,3,5,3,4,2,4,2,8,3,6,1,8,1,5,1,
{1}8<1[1:1],
{16},,,,,,1,8,1h[16:3],,,2h[16:3],,,
{8}1>8[8:11],{1},
{4},,,1b,
{1}8<1[1:1],
{16},,,,,,1,8,1h[16:3],,,2h[16:3],,,1,,
{1000},4,,,,,,,,,,,,,,,,,,,,,,,,,,,,,,,,,,,,,,,,,,,,,,,,,,,,,,,,,,,,,,,,,,,,,,,,,,,,,,,,,,,,,,,,,,,,,,,,,,,,,,,,,,,,,,,,,,,,,,,,,,,,4,,,,,,,,,,,,,,,,,,,,,,,,,,,,,,,,,,,,,,,,,,,,,,,,,,,,,,,,,,,,,,,,,,,,,,,,,,,,,,,,,,,,,,,,,,,,,,,,,,,,,,,,,,,,,,,,,,,,,,,,,,,,,5,,,,,,,,,,,,,,,,,,,,,,,,,,,,,,,,,,,,,,,,,,,,,,,,,,,,,,,,,,,,,,,,,,,,,,,,,,,,,,,,,,,,,,,,,,,,,,,,,,,,,,,,,,,,,,,,,,,,,,,,,,,,,5,,,,,,,,,,,,,,,,,,,,,,,,,,,,,,,,,,,,,,,,,,,,,,,,,,,,,,,,,,,,,,,,,,,,,,,,,,,,,,,,,,,,,,,,,,,,,,,,,,,,,,,,,,,,,,,,,,,,,,,,,,,,,4,,,,,,,,,,,,,,,,,,,,,,,,,,,,,,,,,,,,,,,,,,,,,,,,,,,,,,,,,,,,,,,,,,,,,,,,,,,,,,,,,,,,,,,,,,,,,,,,,,,,,,,,,,,,,,,,,,,,,,,,,,,,,4,,,,,,,,,,,,,,,,,,,,,,,,,,,,,,,,,,,,,,,,,,,,,,,,,,,,,,,,,,,,,,,,,,,,,,,,,,,,,,,,,,,,,,,,,,,,,,,,,,,,,,,,,,,,,,,,,,,,,,,,,,,,,5,,,,,,,,,,,,,,,,,,,,,,,,,,,,,,,,,,,,,,,,,,,,,,,,,,,,,,,,,,,,,,,,,,,,,,,,,,,,,,,,,,,,,,,,,,,,,,,,,,,,,,,,,,,,,,,,,,,,,,,,,,,,,5,,,,,,,,,,,,,,,,,,,,,,,,,,,,,,,,,,,,,,,,,,,,,,,,,,,,,,,,,,,,,,,,,,,,,,,,,,,,,,,,,,,,,,,,,,,,,,,,,,,,,,,,,,,,,,,,,,,,,,,,,,,,,
{16}3,6,3,6,2,7,2,7,1,8,1,8,1b,,,,
{8}8-3[8:1],3-6[8:1],,,2-7[8:1],7-4[8:1],,,
{16}8h[16:3],,,4,,,,,,,2,1,8,7,,1,
{16},8h[16:11],,,,,,,,,,,2,1,,2,
{16},3h[16:11],,,,,,,,,,,2b,,,,
{8}2-7[8:1],7-4[8:1],,,8-3[8:1],3-6[8:1],,,
{16}2h[16:3],,,1,,,,,,,6,,4,5,,7,
{8}4,5,3,6,2,7,1,8,
{16}1,8,1,8,2,7,2,7,3,4,5,6,7b,,,,
{4}6,3,5,1b,
{16}5,,3,,5,4,5-7[16:1],4,5-3[16:1],,,,,,1,,
{16}8/2,,,7/3,,,8,,7/1,,,6/2,,,1,,
{16}8/2,,,7h[16:5]/3h[16:5],,,,,,,3,,2,,1,,
{8}8h[2:1],,,,,6,7,8,
{16}1h[4:1],,,,2h[4:1],,,,3,,4,,5,4,,5h[16:13],
{8}4b,4,3b,3,2b,2,1b,,
{16}2b/7b,,4,5,4,,7b/2b,,5,4,5,,7b/2b,,5/4,4/5,
E
