&title=[宴] 最速最高シャッターガール
&artist=ビートまりお(COOL&CREATE)
&wholebpm=160
&demo_seek=36
&demo_len=25.1
&lv_7=即
&inote_7=(160.0){1},1-5[16000.00#2:25],,
{1}8-4[16000.00#2:25],,
{2}1-5[16000.00#2:25],1-5[16000.00#2:25],{1},
{2}8-4[16000.00#2:25],8-4[16000.00#2:25],{1},
{4}1-5[16000.00#2:25],7-3[16000.00#2:25],2^7[16000.00#2:25],,
{2}5-8[16000.00#2:25],1-4[16000.00#2:25],
{2}2^5[16000.00#2:25],6^1[16000.00#2:25],
{2}1-3[16000.00#2:25]/8-6[16000.00#2:25],4-2[16000.00#2:25]/5-7[16000.00#2:25],
{4}8-4[16000.00#2:25],2-6[16000.00#2:25],7^2[16000.00#2:25],,
{2}4-1[16000.00#2:25],8-5[16000.00#2:25],
{2}7^4[16000.00#2:25],3^8[16000.00#2:25],
{2}1-3[16000.00#2:25]/8-6[16000.00#2:25],4-2[16000.00#2:25]/5-7[16000.00#2:25],
{4}2-4[16000.00#2:25],8-6[16000.00#2:25],1-5[16000.00#2:25],,
{2}6-2[16000.00#2:25],3-7[16000.00#2:25],
{2}7-5[16000.00#2:25]/8-4[16000.00#2:25],1-5[16000.00#2:25]/2-4[16000.00#2:25],
{1}6p3[16000.00#1:50],
{4}7-5[16000.00#2:25],1-3[16000.00#2:25],8-4[16000.00#2:25],,
{2}3-7[16000.00#2:25],6-2[16000.00#2:25],
{2}1-5[16000.00#2:25]/2-4[16000.00#2:25],7-5[16000.00#2:25]/8-4[16000.00#2:25],
{1}1b,
{4}2-7[16000.00#2:25],6-3[16000.00#2:25],1-4[16000.00#2:25],5-8[16000.00#2:25],
{4}2-7[16000.00#2:25],6-3[16000.00#2:25],1-4[16000.00#2:25],5-8[16000.00#2:25],
{4}2-7[16000.00#2:25],6-3[16000.00#2:25],1-4[16000.00#2:25],5-8[16000.00#2:25],
{1}2<5[16000.00#1:50],
{4}7-2[16000.00#2:25],3-6[16000.00#2:25],8-5[16000.00#2:25],4-1[16000.00#2:25],
{4}7-2[16000.00#2:25],3-6[16000.00#2:25],8-5[16000.00#2:25],4-1[16000.00#2:25],
{4}7-2[16000.00#2:25],3-6[16000.00#2:25],8-5[16000.00#2:25],4-1[16000.00#2:25],
{4}7>4[16000.00#1:50],,,5-3[16000.00#2:25]/6-8[16000.00#2:25],
{4}5-1[16000.00#2:25]/6-2[16000.00#2:25],,6-3[16000.00#2:25],2-7[16000.00#2:25],
{4}5<4[16000.00#1:25],,3-6[16000.00#2:25],7-2[16000.00#2:25],
{2}4>5[16000.00#1:25],2V41[16000.00#1:25]/7V58[16000.00#1:25],
{4}2-6[16000.00#2:25],7-3[16000.00#2:25],1-5[16000.00#2:25],8-4[16000.00#2:25],
{2}1b,3-8[16000.00#2:25]/7-4[16000.00#2:25],
{2}2-5[16000.00#2:25]/6-1[16000.00#2:25],4-1[16000.00#2:25]/8-5[16000.00#2:25],
{1}1pp4[16000.00#1:75]/5pp8[16000.00#1:75],,
{2}2-4[16000.00#2:25]/5-2[16000.00#2:25],4-7[16000.00#2:25]/7-5[16000.00#2:25],{1},
{2}4-6[16000.00#2:25]/7-4[16000.00#2:25],2-5[16000.00#2:25]/5-3[16000.00#2:25],{1},
{2}2-8[16000.00#2:25]/8-3[16000.00#2:25],1-6[16000.00#2:25]/7-1[16000.00#2:25],{1},
{1}1>8[16000.00#1:150],,
{1}1>8[16000.00#1:150],,
{1}8<1[16000.00#1:150],,
{1}8<1[16000.00#1:150],,
{1}2qq5[16000.00#1:150],,
{1}7pp4[16000.00#1:150],,
{1}3>6[16000.00#1:75],
{1}6<3[16000.00#1:75],
{1}2^5[16000.00#1:50]/6^1[16000.00#1:50],
{1}3^8[16000.00#1:50]/7^4[16000.00#1:50],
{1}4-1[16000.00#1:100]/5-8[16000.00#1:100],
{4},,,4-1[16000.00#2:25]/5-8[16000.00#2:25],
{4}3-8[16000.00#2:25],7-4[16000.00#2:25],2-5[16000.00#2:25],6-1[16000.00#2:25],
{4}3-8[16000.00#2:25],7-4[16000.00#2:25],2-5[16000.00#2:25],6-1[16000.00#2:25],
{4}3-8[16000.00#2:25],7-4[16000.00#2:25],2-5[16000.00#2:25],6-1[16000.00#2:25],
{4}3>6[16000.00#1:50],,,3-8[16000.00#2:25]/7-4[16000.00#2:25],
{2}4^7[16000.00#2:25]/8^3[16000.00#2:25],1w5[16000.00#2:25],
{2}8w4[16000.00#2:25],1w5[16000.00#2:25],
{2}2-7[16000.00#2:25]/6-3[16000.00#2:25],3-6[16000.00#2:25]/7-2[16000.00#2:25],
{4}2-6[16000.00#2:25],1-5[16000.00#2:25],8-4[16000.00#2:25],7-3[16000.00#2:25],
{2}3-6[16000.00#2:25]/7-2[16000.00#2:25],2-7[16000.00#2:25]/6-3[16000.00#2:25],
{4}7-3[16000.00#2:25],8-4[16000.00#2:25],1-5[16000.00#2:25],2-6[16000.00#2:25],
{2}2^7[16000.00#2:25]/6^3[16000.00#2:25],3^6[16000.00#2:25]/7^2[16000.00#2:25],
{4}6-2[16000.00#2:25],5-1[16000.00#2:25],4-8[16000.00#2:25],3-7[16000.00#2:25],
{2}3^6[16000.00#2:25]/7^2[16000.00#2:25],2^7[16000.00#2:25]/6^3[16000.00#2:25],
{4}3-7[16000.00#2:25],4-8[16000.00#2:25],5-1[16000.00#2:25],6-2[16000.00#2:25],
{673}1-5[16000.00#25:26]/8-4[16000.00#25:26],,,,,,,,
E
