&title=galaxias!
&artist=galaxias! [PV]
&wholebpm=123.0
&lv_1=2
&lv_2=4
&lv_3=6
&lv_4=8
&lv_5=10
&des_4=-100号
&des_5=mai-Star
&inote_1=
(123.0){1},,,,,,,,,
{1}1,
{1}2,
{1}1,
{1}8,
{1}7,
{1}6,
{1}7,
{1}8,
{2}1,1,
{1}1,
{2}2,2,
{1}2,
{2}1,1,
{1}1,
{2}8,8,
{1}8,
{2}7,7,
{2}6,6,
{1}5-8[2:1],,
{2}1,1,
{2}2,2,
{2}1,1,
{2}8,8,
{2}7,7,
{2}6,6,
{2}7,8,
{1}1b,,
{4}2,2,,,
{4}3,3,,,
{4}2,2,,,
{4}1,1,,,
{4}8,8,,,
{4}7,7,,,
{4}8,8,,,
{4}1,1b,,,
{1}2-7[2:1],,
{1}6-3[2:1],,
{1}4-1[2:1],,
{4}8-5[2:1],,,,
E
&inote_2=
(123.0){1},2-5[4:3],,,,
{1}7-4[4:3],,,
{1}1b,
{4},2,,2,
{4},3,,3,
{4},2,,2,
{4},1,,8,
{4},7,,7,
{4},6,,6,
{4},1,,1,
{4},2,,2,
{1}2h[1:1],,
{1}3h[1:1],,
{2}1,8,
{1}7,
{2}1,2,
{1}3h[4:3],
{4}3,3,3,,
{4}4,4,4,,
{4}1,1,1,1,
{4}8,8,8b,,
{4}1,1,2h[4:1],,
{4}3,3,4h[4:1],,
{4}2,2,1h[4:1],,
{4}1,1,8,8b,
{4}7,7,6h[4:1],,
{4}4,4,3h[4:1],,
{4}5,6,7,8-5[4:3],{1},,
{4}1,1,2,8/1,
{4}8,8,7,8/1,
{4}2,2,3,2/1,
{4}7,7,6,8b,
{4}1,1,2,8/1,
{4}8,8,7,8/1,
{4}2,2,3,3,
{1}4h[4:3],
{1}4-1[4:3],,
{1}8-5[4:3],,
{1}2-5[4:3],,
{1}7-4[4:3],,
E
&inote_3=
(123.0){1},2h[1:2],,,,
{1}7h[1:2],,,
{4}2h[4:1]/7h[4:1],,1/8,8b/1b,
{4}1,1,1,,
{4}2,2,2,,
{4}3,3,3,,
{4}4,4,4,4,
{4}8,8,8,,
{4}7,7,7,,
{4}6,6,6,,
{4}5,5,5,5,
{2}4,4,
{2}3,3,
{2}2,2,
{4}1,1,8,8,
{2}7,7,
{2}6,6,
{2}5,5,
{4}4,3,2,1b,
{4}7,8,1,2,
{4}2,1,8,7,
{4}6h[4:1],5,3h[4:1],4,
{4}4/5,3/6,1b/8b,,
{4}8,1,1h[4:1]/8h[4:1],,
{4}4,5,4h[4:1]/5h[4:1],,
{4}1,1,8,8,
{4}2,7,7/2,1/8,
{4}3,4,4h[4:1]/3h[4:1],,
{4}5,6,5h[4:1]/6h[4:1],,
{4}6/3,7b,8b,1b,
{1}2b,
{1}2-6[4:1],
{4}2,1/2,7,7/8,
{4}1/2,3,5/6,8,
{4}2,1/8,7,1/8,
{4}8/7,6,4/3,1,
{4}2,1/3,7,8/6,
{4}7/8,6/5,4/3,2/1,
{4}1/8,2b,1b,8b,
{1}7b,
{2}1-4[4:1],8-5[4:1],
{2}1-4[4:1],8-5[4:1],
{4}2h[4:1],1,7h[4:1],8,
{4}1,8,2/7,1b/8b,
{2}1-5[4:1],8-4[4:1],
{2}2-6[4:1],7-3[4:1],
{4}2h[4:1],1,7h[4:1],8,
{8}4/5,,6/3,,2/7,,1/8,8b/1b,
E
&inote_4=
(123.0){1},
{16}6,,,,1h[8:1],,,1,,,,,5h[8:1],,,5,
{4},3,2,1,
{16}8,,,,3h[8:1],,,3,,,,,7h[8:1],,,7,
{4},6,5,4,
{16}3,,,,8h[8:1],,,8,,,,,4h[8:1],,,4,
{4},6,7,8,
{16}1,,,,6h[8:1],,,6,,,,,2h[8:1],,,2,
{16},,,,2,,,2,,,2,,2b,,,,
{8}3,,8-4[8:1],,,1,1,,
{8}6,,1-5[8:1],,,8,8,,
{8}2,,1-6[8:1],,,8,8,,
{8}7,,8-3[8:1],,,
{999}1,,,,,,,,,,,,,,,,,,,,,,,,,,,,,,,,,,,,,,,,,,,,,,,,,,,,,,,,,,,,,,,,,,,,,,,,,,,,,,,,,,,,,,,,,,,,,,,,,,,,,,,,,,,,,,,,,,,,,,,,,,,,,
{4}1,
{8}2,,7-3[8:1],,,1,1,,
{8}7,,2-6[8:1],,,8,8,,
{8}2,,8-5[8:1],,,8,8,,
{8}7,,1-4[8:1],,,1,1,,
{8}4,,,4,5,,,,
{4}5,3,6,3,
{8}5,,,5,4,,5,,
{8}3,,6,,3,4,6,,
{8}5,,5,4,3,,3,4,
{8}5,,5,3,6,4,5,,
{8}4,,4,5,6,,6,5,
{8}4,6,3,5,4,6,5,,
{4}6/2,5/4,3/2,3/2,
{4}3/7,5/4,7/6,7/6,
{4}3h[4:1],4h[4:1],5h[4:1],6h[4:1],
{8}2,7,2,7,2b,,,,
{4}5,3/8-4[8:1],,6/1-5[8:1],
{8},,4,5,6,5,4,3,
{4}4,6/1-5[8:1],,3/8-4[8:1],
{8},,5,4,3,2,3,4,
{4}5,3/8-4[8:1],,6/1-5[8:1],
{8},,4,3,4,5,6,5,
{4}4,6/1h[4:1],4,3/8h[4:1],
{1}5-1[4:1],
{8}1,,1b,,1,1,1-5[8:1],,
{4},3/8^3[8:1],,6/1^6[8:1],
{8},,4,5,2,3,4,5,
{4}4,6/1^6[8:1],,3/8^3[8:1],
{8},,5,4,1,8,7,6,
{4}5,3/8^3[8:1],,6/1^6[8:1],
{8},,4,3,7,6,2,3,
{4}4,1/6h[4:1],5,8/3h[4:1],
{1}4^7[4:1],
{16}5,,,,8,,,8^5[8:1],,,,,1,,,1^4[8:1],
{4},6,5,3,
{16}4,,,,1,,,1^4[8:1],,,,,8,,,8^5[8:1],
{4},3,4,6,
{16}5,,,,1h[8:1],,,1-6[8:1],,,,,7h[8:1],,,7-4[8:1],
{4},5,3,6,
{16}4,,,,8h[8:1],,,8-3[8:1],,,,,2h[8:1],,,2-5[8:1],
{8},,4,,6,,3,4/3,
E
&inote_5=
(123.0){1},
{16}2h[16:7],,,,3,,,8h[2:1],,,,,7,,,4h[16:9],
{16},,,,1-5[8:1],,,,,,,2h[16:5],,,1,,
{16}8h[4:1],,,,7,,8,1,,,,,1^6[8:1],,1h[8:3],,
{16},,,,6-2[16:1],,,7h[4:1],,,,3h[16:5],,,2,,
{4}1h[16:15],8-4[8:1],,7-3[8:1],
{16},,,,4h[16:3],,,6h[4:1],,,,8h[16:5],,,2,,
{16}6h[4:1],,,,3,,5,4,,,,,7-3[8:1],,7h[8:3],,
{16},,,,2,,,1,,,8,,1,,2b,,
{4}1-4[4:1],2,3-6[4:1],4,
{4}5-8[4:1],6,7-2[4:1],8,
{4}1-5[4:1],2,3-7[4:1],4,
{4}5,2/1,8/7,3b/4b,
{4}5/6-1[8:1],7,1/2-5[8:1],3,
{2}5h[4:1]/7-4[8:1],3h[4:1]/2-5[5000:629],
{4}8/4,1/5,2^5[16:1]/6^1[16:1],,
{4}5/1,4/8,3^8[16:1]/7^4[16:1],,
{4}1/2h[4:3],8,7-3[8:1],,
{4}4/3h[4:3],5,6-1[8:1],,
{4}6/8h[4:3],4,2-5[8:1],,
{8}3/5h[2:1],,1,,7,6,7,,
{4}1^6[2:1],3,2,1,
{4}5^2[2:1],7,6,5,
{4}1h[4:1],3h[4:1],5h[4:1],7h[4:1],
{8},3h[4:1],1h[4:1],,8h[4:1],6h[4:1],,,
{8}3/1,2,1,8,8/6-1[8:1],7,8,,
{8}5/3,4,5,6,4/6-1[8:1],5,4,,
{4}3h[8:3],2h[8:3],1h[8:3],8h[4:1],
{8}7h[4:1],6h[4:1],,5h[8:3],4h[4:1],,,,
{4}3b,1/2^5[16:1],,6/5^2[16:1],
{8},,7^4[8:1],3,2^7[8:1],,6^1[8:1],,
{4}2b,4/1^6[16:1],,8/6^1[16:1],
{8},,2,1,8,7,6^1[16:1],5,
{4}4,2/3^6[16:1],,7/6^3[16:1],
{4},8-5[8:1],2-5[8:1],3-8[8:1],
{4},8b/6b,1b/2b,8b/7b,
{1}3b/1^6[2:1],
{16}8/2,,,1,7,3,,1/3,,5/7,,8,1b,,,,
{8}3^8[8:1],8^5[8:1],,,8,1,2-6[8:1],,
{4}4-8[8:1],5-1[8:1],7-3[8:1],,
{8}1^6[8:1],6^3[8:1],,,4,5,6-2[8:1],,
{4}8-4[8:1],3-7[8:1],5-1[8:1],,
{2}2-7[8:1]/3^8[8:1],6^1[8:1]/7-2[8:1],
{8}1-6[8:1],1,8-3[8:1],8,5-2[8:1],5,4-7[8:1],4,
{4},6b/8b,1b/2b,7b/8b,
{1}1b/3b,
{8}3/5,4,5,6,5,4,3^8[4:1],,
{4}8^5[4:1],5^2[4:1],2^7[4:1],,
{8}6,7,8,1,2,1,8^3[4:1],,
{4}3^6[4:1],6^1[4:1],1^4[4:1],,
{8}2,1,8,7,8,1,2-6[8:1],,
{4}4-8[8:1],5-1[8:1],7-3[8:1],,
{8}8^3[8:1],8,6-2[8:1],6,1-5[8:1],1,,,
{8}3h[4:1],,
{16}2,,,1,,8,1,,
{891}8b,,,,,,,,,,,,,,,,,,,,,,,,,,,,,,,,,,,,,,,,,,,,,,,,,,,,,,,,,,,,,,,,,,,,,,,,,,,,,,,,,,,,,,,,,,,,,,,,,,,,,,,,,,,,,,,,8b,
E
