&title=Backyun! -悪い女-
&artist=青木千紘/愛海
&first=0
&des=
&wholebpm=140
&demo_seek=58.2
&demo_len=13.1
&des_4=はっぴー
&des_5=ニャイン
&des_6=Jack
&lv_1=2
&lv_2=4
&lv_3=7
&lv_4=11+
&lv_5=12+
&lv_6=13
&inote_1=(140.0){1},,,,,
{1}7,
{1}8,
{1}1,
{1}1b,
{2}8,8,
{1}8,
{2}7,7,
{1}7,
{2}8,8,
{1}8,
{2}1,1,
{1}1/8,
{1}7,
{1}6,
{1}5,
{1}4,
{1}3,
{1}2,
{1}1,
{1}8,
{1}1h[2:3],,
{1}1,
{1}2,
{1}3h[2:3],,
{1}3,
{1}2b,,
{4}8,8,,,
{4}7,7,,,
{937}8,,,,,,,,,,,,,,,,,,,,,,,,,,,,,,,,,,,,,,,,,,,,,,,,,,,,,,,,,,,,,,,,,,,,,,,,,,,,,,,,,,,,,,,,,,,,,,,,,,,,,,,,,,,,,,,,,,,,,,,,,,,,,,,,,,,,,,,,,,,,,,,,,,,,,,,,,,,,,,,,,,,,,,,,,,,,,,,,,,,,,,,,,,,,,,,,,,,,,,,,,,,,,,,,,,,,,,,,,,,,,,,,,,,,,,,,,,,8,,,,,,,,,,,,,,,,,,,,,,,,,,,,,,,,,,,,,,,,,,,,,,,,,,,,,,,,,,,,,,,,,,,,,,,,,,,,,,,,,,,,,,,,,,,,,,,,,,,,,,,,,,,,,,,,,,,,,,,,,,,,,,,,,,,,,,,,,,,,,,,,,,,,,,,,,,,,,,,,,,,,,,,,,,,,,,,,,,,,,,,,,,,,,,,,,,,,,,,,,,,,,,,,,,,,,,,,,,,,,,,,,,,,,,,,,,,,,,,,,,,,,,,,,,,,,,,,,,,,,,,,,,,,,,,,,,,,,,,,,,,,,,,,,,,,,,,,,,,,,,,,,,,,,,,,,,,,,,,,,,,,,,,,,,,,,,,,,,,,,,,,,,,,,,,,,,,,,,,,,,,,,,,,,,,,,,,,,,,,,,,,,,,,,,,,,,,,,,,,,,,,,,,,,,,,,,,,,,,,,,,,,,,,,,,,,,,,,,,,,,,,,,,,,,,,,,,,,,,,,,,,,,,,,,,,,,,,,,,,,,,,,,,,,,,,,,,,,,,,,,,,,,,,,,,,,,,,,,,,,,,,,,,,,,,,,,,,,,,,,,,,,,,,,,,,,,,,,,,,,,,,,,,,,,,,,,,,,,,,,,,,,,,,,,,,,,,,,,,,,,,,,,,,,,,,,,,,,,,,,,,,,,,,,,,,,,,,,,,,,,,,,,,,,,,,,,,,,,,,,,,,,,,,,,,,,,,,,,,,,,,,,,,,,,,,,,,,,,,,,,
{4}1,1,,,
{4}2,2,,,
{4}3,3,,,
{4}4,4,,,
{4}5,5,,,
{1}6-3[2:1],,
{1}2-7[2:1],,
{1}7-2[2:1],,
{1}3-6[2:1],,
{4}7,7,
{2}7,{1},
{4}2,
{893}2,,,,,,,,,,,,,,,,,,,,,,,,,,,,,,,,,,,,,,,,,,,,,,,,,,,,,,,,,,,,,,,,,,,,,,,,,,,,,,,,,,,,,,,,,,,,,,,,,,,,,,,,,,,,,,,,,,,,,,,,,,,,,,,,,,,,,,,,,,,,,,,,,,,,,,,,,,,,,,,,,,,,,,,,,,,,,,,,,,,,,,,,,,,,,,,,,,,,,,,,,,,,,,,,,,,,,,,,,,,,,,
{357}2,,,,,,,,,,,,,,,,,,,,,,,,,,,,,,,,,,,,,,,,,,,,,,,,,,,,,,,,,,,,,,,,,,,,,,,,,,,,,,,,,,,,,,,,,,,,,,,,,,,,,,,,,,,,,,,,,,,,,,,,,,,,,,,,,,,,,,,,,,,,,,,,,,,,,,,,,,,,,,,,,,,,,,,,,,,,,,,,,,,{1},
{4}8,8,
{2}8,{1},
{4}1,1,1,,
{1}2h[4:3],
{1}3h[4:3],
{1}2h[4:3],
{1}2b,,
{4}1-4[2:1],,,,
E
&inote_2=(140.0){1},,,,,
{2}1,1,
{2}2,2,
{2}3,3,
{1}4b,
{1}4,
{1}5,
{1}4,
{1}5h[2:1],
{1}3,
{1}6,
{1}3,
{1}6h[2:1],
{2}4,4,
{2}3,3,
{2}2,2,
{1}1-4[4:1],
{2}5,5,
{2}6,6,
{2}7,7,
{1}8h[2:1],
{4}1,1,1,,
{4}8,8,8,,
{2}2,2,
{2}7,7,
{4}2,2,2,,
{4}7,7,7,,
{2}1,8,
{1}1h[2:3]/8h[2:3],,
{2}1,8,
{4}1,,8,8,
{2}1,2,
{4}3,,4,4,
{2}5,4,
{4}5,,4,4,
{2}5,6,
{2}7,8b,
{4}1,1,2,2,
{2}1,1,
{4}8,8,7,7,
{2}6,5b,
{4}4,4,5,5,
{2}4,3,
{4}2,2,1,1,
{1}8h[2:1],
{4}1,1,8,8,
{1}1h[2:1],
{4}8,8,1,1,
{1}8-5[4:1],
{4}4,4,5,5,
{1}4h[2:1],
{4}3,3,2,2,
{1}1-4[4:1],
{1}8-5[4:1],
{1}1-4[4:1],
{1}8h[4:7],,
{2}8/1,7/2,
{1}8b/1b,
E
&inote_3=(140.0){1},
{4}2,1,2,1/2,
{4}1,8,1,8/1,
{4}7,8,7,7/8,
{4}1,8,1/8,,
{4}1/8,1/8,8/1,,
{4}5/6,5/6,5/6,,
{4}3/4,3/4,3/4,,
{4}7/8,2/1,3/4,5b/6b,
{4}4,4,4,,
{4}3,3,3,,
{4}2,2,2,,
{4}2,1,8,7,
{1}1-4[2:1],
{1}5-8[2:1],
{1}2-7[2:1],
{1}6-3[2:1],
{4}1,1,1,1,
{4},2,2,2,
{4}3,3,3,3,
{4},4,4,4,
{4}5,5,5,5,
{4},6,6,6,
{4}7,7,7,7,
{4},8,8,8,
{8}1,1,1,1,1,,,8,
{8},8,,8,8,,,,
{4}2,2,2,2/7,
{4}7,7,7,7,
{8}8,8,8,8,8,,,1,
{8},1,,1,1,,,,
{4}7,8,1,2h[4:5],{1},
{4},,1/8,8/1,
{4}7,7,7,5/6,
{4}6,6,6,4/3,
{4}3,3,3,1/2,
{4}2,2,1/2,8/7,
{4}8,1,2,4/3,
{4}5,6,7,8/1,
{4}2,3,4,4/5,
{1}4-1[4:1]/5-8[4:1],
{4}7,8b/1b,2,8b/1b,
{4}7,8,1,2,
{4}3,4b/5b,6,4b/5b,
{1}1-4[4:1]/8-5[4:1],
{4}3,8b/7b,6,2b/1b,
{4}2,1,8,7,
{4}7,8/1,2,1/8,
{4}8,8,1,1,
{4}6,7b/8b,3,2b/1b,
{4}7,8,1,2,
{4}3,2b/1b,6,8b/7b,
{1}1-4[4:1]/8-5[4:1],
{4}2/1,8b/3b,8/7,1b/6b,
{4}3,4,5,6,
{4}7,8/1,2,8/1,
{4}8/1,,,1/8,
{4}2/1,,,8/1,
{4}7/8,,,1/8,
{1}1h[1:2]/8h[1:2],,,
E
&inote_4=(140.0){1},
{4}7,7,7,6/8,
{4}3,3,3,2/4,
{4}6,6,6,5/7,
{4}2,2,2,1/3,
{16}8/6,,,,7,,,,1/5,,,4/8,,,2,,
{16}1/3,,,,2,,,,4/8,,,1/5,,,7,,
{16}8/6,,,,7,,,,1/5,,,4/8,,,2,,
{4}1/3,2,6/8-4[8:1],,
{8}7,8/6,,5,4,3,4,3,
{8}2,3/1,,4,5,6,5,6,
{8}7,8/6,,5,4,3,4,3,
{8}2,1,1h[4:1],2,2h[4:1],3,3,,
{8}2,3/1,,4,5,6,5,6,
{8}7,8/6,,5,4,3,4,3,
{8}2,3/1,,4,5,6,5,6,
{8}7,8,8h[4:1],7,7^4[8:1],,,,
{8}1,2,3,,,5,6/5,,
{8}8,7,6,,,4,4/3,,
{8}3,4,5,,,8,6/7,,
{8}7,6,5h[4:1],,4h[4:1],,1,,
{8}8,1,2h[8:3],,,5,4/6,,
{8}6,5,4h[8:3],,,8,1/7,,
{8}4,5,6h[8:3],,,3,2/4,,
{8}5,4,3h[4:1],,2h[4:1],,1,,
{8}6h[8:3],,,8,7/1-5[8:1],,,,
{8}3h[8:3],,,1,2/8-4[8:1],,,,
{4}2h[4:1],3-8[8:1],1-5[8:1],,
{4}7h[4:1],6-1[8:1],8-4[8:1],,
{8}7h[8:3],,,5,6/4-8[8:1],,,,
{8}2h[8:3],,,4,3/5-1[8:1],,,,
{4}7-2[8:1],3-6[8:1],1-4[8:1],5-8[2:1],{1},
{2},3-8[16:1],
{8}8/1-5[8:1],,,,2,4,5/3,,
{8}7,5,4/6,3h[4:1],,2,2,1h[4:1],
{8},8,8,7,7,6^3[8:1],,,
{2},6-1[16:1],
{8}1/8-4[8:1],,,,7,5,6/4,,
{8}2,4,3/5,6h[4:1],,7,7,8^3[8:1],
{8},,,4,8,7,6,4-8[8:1],
{4},5-1[8:1],,8b,
{4}4/7,1/2,2/5,7/8,
{2}7-2[8:1],3-6[8:1],
{4}3/8,5/6,1/6,3/4,
{2}1-5[8:1],8-4[8:1],
{4}5/7,1/2,4/2,8/7,
{2}2^5[8:1],7^4[8:1],
{4}1/3,5/6,8/6,3/4,
{4}2^5[4:1],5^8[4:1],8,1b,
{8}7/8h[8:1],1h[8:3],2,,8h[4:1],7,1h[1:1],,
{4}2,7,2,7,
{8}2/1h[8:1],8h[8:3],7,,1h[4:1],2,8h[1:1],,
{1}1-5[4:1],
{8}6/7h[8:1],2h[8:3],3,,7h[4:1],6,2h[4:1],,
{2}8-4[8:1],5-1[8:1],
{8}3/2h[8:1],7h[8:3],6,,2h[4:1],3,7h[4:1],,
{1}1-5[1:1],
{2}7-3[2:1],8-4[2:1],
{8}1-5[4:1],,,,7-4[8:1],,,2-5[8:1],
{1}8-4[4:5],,
{16}1/6,,,,7/5,,,,3/8,,,4/2,,,6b/3b,
E
&inote_5=(140.0){1},
{4}3,3,4,4,
{4}5,5,6,6,
{4}4,4,2,2,
{4}8,8,6,6,
{16}8/7,,,,2/1,,,,4/3,,,3/2,,,2/1,,
{16}8/7,,,,6/5,,,,4/3,,,5/4,,,6/5,,
{16}8/7,,,,2/1,,,,4/3,,,3/2,,,2/1,,
{4}7-4[8:1],2-5[8:1],1-6[8:1],,
{8}8,1h[4:1],,2,2,3,3,4,
{8}8,7h[1945:488],,6,6,5,5,4,
{8}3,2h[4:1],,3,4,5,6,7,
{16}8,,1,2,1,,7,8,7,,5,6,5,,3,,
{8}1,7h[4:1],,5,5,3,3,1,
{8}2,4h[4:1],,6,6,8,8,2,
{8}1,7h[4:1],,5,5,3,3,1,
{16}2,,7,8,7,,5,6,5,,3,4,3,,1b,,
{8},2,2,3,4,5,6,7h[4:1],
{8},6,6,5,3,3,1,1h[4:1],
{8},2,3,4,5,6,7,8h[4:1],
{16},,6,7,6,,4,5,4,,2,3,2,,8,,
{8},2,2,6,6,4,4,2h[4:1],
{8},3,3,5,5,7,7,1h[4:1],
{8},8,7,6,5,4,3,2h[4:1],
{16},,4,3,4,,6,5,6,,8,7,8,,1b,,
{8}7/8,8/7,6/5,4/3,2/1,,3h[8:3],4-8[8:1],
{8},,,8,7h[4:1],,6-1[8:1],,
{8},,2h[8:3],,,3,4-8[8:1],,
{16},,,,7h[4:1],,,,5,4h[16:3],,,1b,,,,
{8}3/4,3/4,5/6,7/8,1/2,,3h[8:3],4-8[8:1],
{8},,,7,6h[4:1],,5-1[8:1],,
{8}3,3,7,7,6,4,2,8b,{1},
{2},5-2[8:1]/6-1[8:1],
{16}3,3,5,,6,6,8,,1,1,3,,4,4,6,,
{16}3,3,1,,8,8,6,,5,5,3,,2,,1-5[8:1],,
{8},7,6-2[8:1],5,4,3,2,1h[8:3],
{4},,8b/7b,1b/2b,
{16}6,6,4,,3,3,1,,
{209}8,,,,,,,,,,,,,
{207}8,,,,,,,,,,,,,
{16}6,,5,5,3,,
{16}6,6,8,,1,1,3,,4,4,6,,7,,8-4[8:1],,
{8},2,3-7[8:1],4,5,6,7,8h[4:1],
{8},1,1h[2:1],,,,,,
{4}8/3-8[8:1],1b,1/6-1[8:1],8b,
{8}8,2,4,6h[4:1],,8h[4:1],,,
{4}1/6-1[8:1],8b,8/3-8[8:1],1b,
{8}1,7,5,3h[8:3],,,,,
{4}8/3-8[8:1],1b,1/6-1[8:1],8b,
{8}8,2,4,6h[4:1],,8h[4:1],,,
{8}1/6-1[8:1],1,8b,,8/3-8[8:1],8,1b,,
{8}1,7,5,3h[4:1],,1b,,,
{4}1/2-5[8:1],2b/6-1[8:1],8-3[8:1],8b,
{8}2-6[8:1],4,6,8-4[8:1],,
{417}1,,,,,,,,,,,,,,,,,,,,,,,,,,,,,,,,,,,,,,,,,,,,,,,,,,,,
{835}1,,,,,,,,,,,,,,,,,,,,,,,,,,,,,,,,,,,,,,,,,,,,,,,,,,,,,,,,,,,,,,,,,,,,,,,,,,,,,,,,,,,,,,,,,,,,,,,,,,,,,,,,,,,,,,,,,,,,,,,,,,,,,,,,,,,,,,,,,,,,,,,,,,,,,,,,,,,,,,,,,,,,,,,,,,,,,,,,,,,,,,,,,,,,,,,,,,,,,,,,,,,,,,,,,
{4}1/2-5[8:1],2b/6-1[8:1],8-3[8:1],8b,
{8}2-6[8:1],4,4,8,8-4[8:1],6,6,2,
{4}1/2-5[8:1],2b/6-1[8:1],8-3[8:1],8b,
{8}2-6[8:1],4,6,8-4[8:1],,
{417}1,,,,,,,,,,,,,,,,,,,,,,,,,,,,,,,,,,,,,,,,,,,,,,,,,,,,
{835}1,,,,,,,,,,,,,,,,,,,,,,,,,,,,,,,,,,,,,,,,,,,,,,,,,,,,,,,,,,,,,,,,,,,,,,,,,,,,,,,,,,,,,,,,,,,,,,,,,,,,,,,,,,,,,,,,,,,,,,,,,,,,,,,,,,,,,,,,,,,,,,,,,,,,,,,,,,,,,,,,,,,,,,,,,,,,,,,,,,,,,,,,,,,,,,,,,,,,,,,,,,,,,,,,,
{8}1/2-5[8:1],7,2b/6-1[8:1],,8-3[8:1],8,8b,,
{8}1,8,7,6h[4:1],,4h[8:3],,,
{16}1,,2,,3,,4,5,4,3h[8:1],,2h[8:1],,8,8,7,
{16}7,,1,,3,,5,,7h[8:1],,6,6,5,,4,,
{1}3-8[2:1],,
{16}8h[4:1],,,,6h[4:1],,,,4,,,2,,,8b,
E
&inote_6=(140.0){1},
{4}3/4h[8:7],3,2,
{8}2,
{983}2,,,,,,,,,,,,,,,,,,,,,,,,,,,,,,,,,,,,,,,,,
{625}4,,,,,,,,,,,,,,,,,,,,,,,,,,
{983}3,,,,,,,,,,,,,,,,,,,,,,,,,,,,,,,,,,,,,,,,,
{4}5h[4:3],6,7^2[8:1],,
{4}6/5h[8:7],6,7,
{8}7,
{983}7,,,,,,,,,,,,,,,,,,,,,,,,,,,,,,,,,,,,,,,,,
{625}5,,,,,,,,,,,,,,,,,,,,,,,,,,
{983}6,,,,,,,,,,,,,,,,,,,,,,,,,,,,,,,,,,,,,,,,,
{4}4h[4:3],3,2^7[8:1],,
{16}7-5[8:1]/8-4[8:1],,,,7/8,,,,2h[16:3],,,3h[16:3],,,4,,
{16}1-5[8:1]/2-4[8:1],,,,1/2,,,,7h[16:3],,,6h[16:3],,,5,,
{16}1^4[8:1]/8^5[8:1],,,,1/8,,,,3/6,,,2/5,,,4/7,,
{4}5-8[8:1],5/4-1[8:1],4/5-8[8:1],1b/5,
{8}4/8,5/1h[4:1],,2,2,3,3,2,
{8}1/5,4/8h[4:1],,7,7,6,6,7,
{8}4/8,5/1h[4:1],,2,3,4,3,2,
{16}1/8,,2,1,2,,7,6,7,,3,4,3,,8,,
{8}4/8,1/5h[4:1],,3,3,1,1-5[8:1],2/8,
{8},,,6,6,7,7,6,
{8}1/5,8/4h[4:1],,5,6,7,8,1,
{16}1/8,,7,8,7,,2,3,2,,6,5,6,,1b,,
{8},2h[8:3],3,4,5h[8:3],6,7,8^3[8:1],
{8},5^8[8:1],,4,4h[4:1],,5,6h[4:1],
{8}3,2h[4:1],7,8h[4:1],1,2^5[8:1],,7h[4:1],
{16},,6,7,6,,4,5,4,,2,3,2,,8,,
{8},6h[8:3],7,8,1h[8:3],2,3,4^7[8:1],
{8},1^4[8:1],,8,8h[4:1],,1,2h[4:1],
{8}7,6h[4:1],3,4h[4:1],5,7^4[8:1],4,2h[4:1],
{16},,3,2,3,,5,4,5,,7,6,7,,1b,,
{8}7/8,7/8,5/6-1[8:1],3/4,2,,4h[8:3],3-8[8:1],
{8},3-6[8:1],,7,7h[4:1],,6,5,
{8}4,3^6[8:1],2,1,8,2/7pp2[8:3],,,
{16},,,,3h[4:1],,,,4,5h[16:3],,,8b,,,,
{8}1/2,1/2,4/3-8[8:1],5/6,7,,5h[8:3],6-1[8:1],
{8},6-3[8:1],,2,2h[4:1],,3-7[8:1],3,
{8}2-6[8:1],2,1-5[8:1],1,8-4[8:1],8,7-3[4:5],7b,{1},
{2},3-8[8:1]/4-7[8:1],
{8}5-2[8:1]/6-1[8:1],,5/6,,1-4[8:1]/8-5[8:1],2/7,1/8,,
{8}3/6h[4:1],2^5[8:1],1,8h[4:1],,6,7,6/8p3[8:1],
{8},1,2,2,3/4,5qq2[2:1]/6pp1[2:1],7/8,,
{4},,1b/2b,7b/8b,
{8}2-5[8:1]/6-1[8:1],,2/6,,3-8[8:1]/7-4[8:1],4/8,3/7,,
{8}6/3h[4:1],7^4[8:1],8,1h[4:1],,3,2,1<5[4:1],
{8},5>1[4:1],,1,8,7,6,1/5h[4:1],
{8},4pp4[4:1]*qq4[4:1],4,,,,4b/8b,,
{4}2/5-2[8:1],1b/5,1/6-1[8:1],6/8b,
{8}7/8,1/2,3/4,5q4[4:1]/6<3[4:1],,,,,
{4}7/4-7[8:1],4/8b,8/3-8[8:1],1b/3,
{8}2/4,1p4[4:1]/8q5[4:1],5/7,,,,,,
{4}1/6-1[8:1],6/8b,8/3-8[8:1],1b/3,
{8}1/2,7/8,5/6,3>6[4:1]/4p5[4:1],,,,,
{8}1/6-1[8:1],7,8b,,8/3-8[8:1],2,1b,,
{8}1/8,2/7,3/6,4z8[4:1]/5s1[4:1],,,,,
{4}6/3-6[8:1],7b/3-7[8:1],8/3-8[8:1],1b/3,
{8}2q7[8:1],6q3[8:1],,,,1,1/8,,
{4}3/6-3[8:1],2/6b-2[8:1],1/6-1[8:1],6/8b,
{8}7pp4[2:1],2qq5[8:3],7,2,,,,,
{4}8/3-8[8:1],3/1b^4[8:1],6-1[8:1],6/8b^5[8:1],
{8}4,3,2,1w5[8:1],,,,,
{8}3^8[8:1]/7^4[8:1],4/8,3b/7b,,2^5[8:1]/6^1[8:1],1/5,2b/6b,,
{8}3/7,2/6,1/5,4q2[8:1]/8q6[8:1],,,,,
{16}4/8,,3/7,,2/6,,5,4,5,6h[8:1],,7h[8:1],,2,2,3,
{16}3,,4/8,,3/7,,2/6,,1h[8:1],,8,8,4,,1/5,,
{8}4/8-4[8:11],3,5,2,6,1,7,8,
{8}7,1,6,2,5,3,4h[4:1],,
{16}5-8[8:1],,,,4-1[8:1],,,,5,,,2/7,,,1b/8b,
E
