&title=[宴] セガサターン起動音[H.][Remix]
&artist=Hiro
&wholebpm=148
&demo_seek=9.7
&demo_len=14.9
&lv_7=宴
&inote_7=(148.0){1},
{16}1,2,3,4,5,6,7,8,1,2,3,4,5,6,7,8,
{983}1,,,,,,,,,,,,,,,,,,,,,,,,,,,,,,,,,,,,,,,,,
{625}2,,,,,,,,,,,,,,,,,,,,,,,,,,
{983}3,,,,,,,,,,,,,,,,,,,,,,,,,,,,,,,,,,,,,,,,,4,,,,,,,,,,,,,,,,,,,,,,,,,,,,,,,,,,,,,,,,,
{625}5,,,,,,,,,,,,,,,,,,,,,,,,,,
{983}6,,,,,,,,,,,,,,,,,,,,,,,,,,,,,,,,,,,,,,,,,7,,,,,,,,,,,,,,,,,,,,,,,,,,,,,,,,,,,,,,,,,
{625}8,,,,,,,,,,,,,,,,,,,,,,,,,,
{983}1,,,,,,,,,,,,,,,,,,,,,,,,,,,,,,,,,,,,,,,,,2,,,,,,,,,,,,,,,,,,,,,,,,,,,,,,,,,,,,,,,,,
{625}3,,,,,,,,,,,,,,,,,,,,,,,,,,
{983}4,,,,,,,,,,,,,,,,,,,,,,,,,,,,,,,,,,,,,,,,,5,,,,,,,,,,,,,,,,,,,,,,,,,,,,,,,,,,,,,,,,,
{625}6,,,,,,,,,,,,,,,,,,,,,,,,,,
{983}7,,,,,,,,,,,,,,,,,,,,,,,,,,,,,,,,,,,,,,,,,8,,,,,,,,,,,,,,,,,,,,,,,,,,,,,,,,,,,,,,,,,
{625}1,,,,,,,,,,,,,,,,,,,,,,,,,,
{983}2,,,,,,,,,,,,,,,,,,,,,,,,,,,,,,,,,,,,,,,,,3,,,,,,,,,,,,,,,,,,,,,,,,,,,,,,,,,,,,,,,,,
{625}4,,,,,,,,,,,,,,,,,,,,,,,,,,
{983}5,,,,,,,,,,,,,,,,,,,,,,,,,,,,,,,,,,,,,,,,,6,,,,,,,,,,,,,,,,,,,,,,,,,,,,,,,,,,,,,,,,,
{625}7,,,,,,,,,,,,,,,,,,,,,,,,,,
{983}8,,,,,,,,,,,,,,,,,,,,,,,,,,,,,,,,,,,,,,,,,
{639}1,,,,,,,,,,,,,,,,,,,,
{641}2,,,,,,,,,,,,,,,,,,,,
{639}3,,,,,,,,,,,,,,,,,,,,
{641}4,,,,,,,,,,,,,,,,,,,,
{639}5,,,,,,,,,,,,,,,,,,,,
{641}6,,,,,,,,,,,,,,,,,,,,
{639}7,,,,,,,,,,,,,,,,,,,,
{641}8,,,,,,,,,,,,,,,,,,,,
{639}1,,,,,,,,,,,,,,,,,,,,
{641}2,,,,,,,,,,,,,,,,,,,,
{639}3,,,,,,,,,,,,,,,,,,,,
{641}4,,,,,,,,,,,,,,,,,,,,
{639}5,,,,,,,,,,,,,,,,,,,,
{641}6,,,,,,,,,,,,,,,,,,,,
{639}7,,,,,,,,,,,,,,,,,,,,
{641}8,,,,,,,,,,,,,,,,,,,,
{639}1,,,,,,,,,,,,,,,,,,,,
{641}2,,,,,,,,,,,,,,,,,,,,
{639}3,,,,,,,,,,,,,,,,,,,,
{641}4,,,,,,,,,,,,,,,,,,,,
{639}5,,,,,,,,,,,,,,,,,,,,
{641}6,,,,,,,,,,,,,,,,,,,,
{639}7,,,,,,,,,,,,,,,,,,,,
{641}8,,,,,,,,,,,,,,,,,,,,
{4}1b,
{4}1,2,3,4,
{4}5,6,7,8,
{8}1,2,3,4,5,6,7,8,
{16}1b,2,3,4,5,6,7,8,1,2,3,4,5,6,7,8,
{16}1,2,3,4,5,6,7,8,
{639}1,,,,,,,,,,,,,,,,,,,,
{641}2,,,,,,,,,,,,,,,,,,,,
{639}3,,,,,,,,,,,,,,,,,,,,
{641}4,,,,,,,,,,,,,,,,,,,,
{639}5,,,,,,,,,,,,,,,,,,,,
{641}6,,,,,,,,,,,,,,,,,,,,
{639}7,,,,,,,,,,,,,,,,,,,,
{641}8,,,,,,,,,,,,,,,,,,,,
{639}1b,,,,,,,,,,,,,,,,,,,,
{641}2,,,,,,,,,,,,,,,,,,,,
{639}3,,,,,,,,,,,,,,,,,,,,
{641}4,,,,,,,,,,,,,,,,,,,,
{639}5,,,,,,,,,,,,,,,,,,,,
{641}6,,,,,,,,,,,,,,,,,,,,
{639}7,,,,,,,,,,,,,,,,,,,,
{641}8,,,,,,,,,,,,,,,,,,,,
{16}4,3,2,1,8,7,6,5,4,3,2,1,8,7,6,5,
{16}4,3,2,1,8,7,6,5,
{639}4,,,,,,,,,,,,,,,,,,,,
{641}3,,,,,,,,,,,,,,,,,,,,
{639}2,,,,,,,,,,,,,,,,,,,,
{641}1,,,,,,,,,,,,,,,,,,,,
{639}8,,,,,,,,,,,,,,,,,,,,
{641}7,,,,,,,,,,,,,,,,,,,,
{639}6,,,,,,,,,,,,,,,,,,,,
{641}5,,,,,,,,,,,,,,,,,,,,
{639}4b,,,,,,,,,,,,,,,,,,,,
{641}3,,,,,,,,,,,,,,,,,,,,
{639}2,,,,,,,,,,,,,,,,,,,,
{641}1,,,,,,,,,,,,,,,,,,,,
{639}8,,,,,,,,,,,,,,,,,,,,
{641}7,,,,,,,,,,,,,,,,,,,,
{639}6,,,,,,,,,,,,,,,,,,,,
{641}5,,,,,,,,,,,,,,,,,,,,
{16}2,3,4,5,6,7,8,1,2,3,4,5,6,7,8,1,
{16}2,3,4,5,6,7,8,1,
{639}2,,,,,,,,,,,,,,,,,,,,
{641}3,,,,,,,,,,,,,,,,,,,,
{639}4,,,,,,,,,,,,,,,,,,,,
{641}5,,,,,,,,,,,,,,,,,,,,
{639}6,,,,,,,,,,,,,,,,,,,,
{641}7,,,,,,,,,,,,,,,,,,,,
{639}8,,,,,,,,,,,,,,,,,,,,
{641}1,,,,,,,,,,,,,,,,,,,,
{639}2b,,,,,,,,,,,,,,,,,,,,
{641}3,,,,,,,,,,,,,,,,,,,,
{639}4,,,,,,,,,,,,,,,,,,,,
{641}5,,,,,,,,,,,,,,,,,,,,
{639}6,,,,,,,,,,,,,,,,,,,,
{641}7,,,,,,,,,,,,,,,,,,,,
{639}8,,,,,,,,,,,,,,,,,,,,
{641}1,,,,,,,,,,,,,,,,,,,,
{16}7,6,5,4,3,2,1,8,7,6,5,4,3,2,1,8,
{16}7,6,5,4,3,2,1,8,
{639}7,,,,,,,,,,,,,,,,,,,,
{641}6,,,,,,,,,,,,,,,,,,,,
{639}5,,,,,,,,,,,,,,,,,,,,
{641}4,,,,,,,,,,,,,,,,,,,,
{639}3,,,,,,,,,,,,,,,,,,,,
{641}2,,,,,,,,,,,,,,,,,,,,
{639}1,,,,,,,,,,,,,,,,,,,,
{641}8,,,,,,,,,,,,,,,,,,,,
{639}7b,,,,,,,,,,,,,,,,,,,,
{641}6,,,,,,,,,,,,,,,,,,,,
{639}5,,,,,,,,,,,,,,,,,,,,
{641}4,,,,,,,,,,,,,,,,,,,,
{639}3,,,,,,,,,,,,,,,,,,,,
{641}2,,,,,,,,,,,,,,,,,,,,
{639}1,,,,,,,,,,,,,,,,,,,,
{641}8,,,,,,,,,,,,,,,,,,,,
{16}1b,2,3,4,5,6,7,8,4,3,2,1,8,7,6,5,
{16}1,2,3,4,5,6,7,8,
{639}4,,,,,,,,,,,,,,,,,,,,
{641}3,,,,,,,,,,,,,,,,,,,,
{639}2,,,,,,,,,,,,,,,,,,,,
{641}1,,,,,,,,,,,,,,,,,,,,
{639}8,,,,,,,,,,,,,,,,,,,,
{641}7,,,,,,,,,,,,,,,,,,,,
{639}6,,,,,,,,,,,,,,,,,,,,
{641}5,,,,,,,,,,,,,,,,,,,,
{639}4b,,,,,,,,,,,,,,,,,,,,
{641}3,,,,,,,,,,,,,,,,,,,,
{639}2,,,,,,,,,,,,,,,,,,,,
{641}1,,,,,,,,,,,,,,,,,,,,
{639}8,,,,,,,,,,,,,,,,,,,,
{641}7,,,,,,,,,,,,,,,,,,,,
{639}6,,,,,,,,,,,,,,,,,,,,
{641}5,,,,,,,,,,,,,,,,,,,,
{16}1,2,3,4,5,6,7,8,4,3,2,1,8,7,6,5,
{16}1,2,3,4,5,6,7,8,
{639}4,,,,,,,,,,,,,,,,,,,,
{641}3,,,,,,,,,,,,,,,,,,,,
{639}2,,,,,,,,,,,,,,,,,,,,
{641}1,,,,,,,,,,,,,,,,,,,,
{639}8,,,,,,,,,,,,,,,,,,,,
{641}7,,,,,,,,,,,,,,,,,,,,
{639}6,,,,,,,,,,,,,,,,,,,,
{641}5,,,,,,,,,,,,,,,,,,,,
{639}4b,,,,,,,,,,,,,,,,,,,,
{641}3,,,,,,,,,,,,,,,,,,,,
{639}2,,,,,,,,,,,,,,,,,,,,
{641}1,,,,,,,,,,,,,,,,,,,,
{639}8,,,,,,,,,,,,,,,,,,,,
{641}7,,,,,,,,,,,,,,,,,,,,
{639}6,,,,,,,,,,,,,,,,,,,,
{641}5,,,,,,,,,,,,,,,,,,,,
{16}1,2,3,4,5,6,7,8,4,3,2,1,8,7,6,5,
{16}1,2,3,4,5,6,7,8,
{639}4,,,,,,,,,,,,,,,,,,,,
{641}3,,,,,,,,,,,,,,,,,,,,
{639}2,,,,,,,,,,,,,,,,,,,,
{641}1,,,,,,,,,,,,,,,,,,,,
{639}8,,,,,,,,,,,,,,,,,,,,
{641}7,,,,,,,,,,,,,,,,,,,,
{639}6,,,,,,,,,,,,,,,,,,,,
{641}5,,,,,,,,,,,,,,,,,,,,
{639}4b,,,,,,,,,,,,,,,,,,,,
{641}3,,,,,,,,,,,,,,,,,,,,
{639}2,,,,,,,,,,,,,,,,,,,,
{641}1,,,,,,,,,,,,,,,,,,,,
{639}8,,,,,,,,,,,,,,,,,,,,
{641}7,,,,,,,,,,,,,,,,,,,,
{639}6,,,,,,,,,,,,,,,,,,,,
{641}5,,,,,,,,,,,,,,,,,,,,
{16}1,2,3,4,5,6,7,8,4,3,2,1,8,7,6,5,
{16}1,2,3,4,5,6,7,8,
{639}4,,,,,,,,,,,,,,,,,,,,
{641}3,,,,,,,,,,,,,,,,,,,,2,,,,,,,,,,,,,,,,,,,,
{639}1,,,,,,,,,,,,,,,,,,,,
{641}8,,,,,,,,,,,,,,,,,,,,
{639}7,,,,,,,,,,,,,,,,,,,,6,,,,,,,,,,,,,,,,,,,,
{641}5,,,,,,,,,,,,,,,,,,,,
{639}4b,,,,,,,,,,,,,,,,,,,,
{641}3,,,,,,,,,,,,,,,,,,,,
{639}2,,,,,,,,,,,,,,,,,,,,
{641}1,,,,,,,,,,,,,,,,,,,,
{639}8,,,,,,,,,,,,,,,,,,,,
{641}7,,,,,,,,,,,,,,,,,,,,
{639}6,,,,,,,,,,,,,,,,,,,,
{641}5,,,,,,,,,,,,,,,,,,,,
{16}1,2,3,4,5,6,7,8,2,3,4,5,6,7,8,1,
{16}3,4,5,6,7,8,1,2,
{639}4,,,,,,,,,,,,,,,,,,,,
{641}5,,,,,,,,,,,,,,,,,,,,
{639}6,,,,,,,,,,,,,,,,,,,,
{641}7,,,,,,,,,,,,,,,,,,,,
{639}8,,,,,,,,,,,,,,,,,,,,
{641}1,,,,,,,,,,,,,,,,,,,,
{639}2,,,,,,,,,,,,,,,,,,,,
{641}3,,,,,,,,,,,,,,,,,,,,
{639}4b,,,,,,,,,,,,,,,,,,,,
{641}5,,,,,,,,,,,,,,,,,,,,
{639}6,,,,,,,,,,,,,,,,,,,,
{641}7,,,,,,,,,,,,,,,,,,,,8,,,,,,,,,,,,,,,,,,,,
{639}1,,,,,,,,,,,,,,,,,,,,
{641}2,,,,,,,,,,,,,,,,,,,,
{639}3,,,,,,,,,,,,,,,,,,,,
{16}5,6,7,8,1,2,3,4,6,7,8,1,2,3,4,5,
{16}7,8,1,2,3,4,5,6,
{639}8,,,,,,,,,,,,,,,,,,,,
{641}1,,,,,,,,,,,,,,,,,,,,
{639}2,,,,,,,,,,,,,,,,,,,,
{641}3,,,,,,,,,,,,,,,,,,,,
{639}4,,,,,,,,,,,,,,,,,,,,
{641}5,,,,,,,,,,,,,,,,,,,,
{639}6,,,,,,,,,,,,,,,,,,,,
{641}7,,,,,,,,,,,,,,,,,,,,
{639}8b,,,,,,,,,,,,,,,,,,,,
{641}1,,,,,,,,,,,,,,,,,,,,
{639}2,,,,,,,,,,,,,,,,,,,,
{641}3,,,,,,,,,,,,,,,,,,,,
{639}4,,,,,,,,,,,,,,,,,,,,
{641}5,,,,,,,,,,,,,,,,,,,,
{639}6,,,,,,,,,,,,,,,,,,,,
{641}7,,,,,,,,,,,,,,,,,,,,
{16}1,2,3,4,5,6,7,8,2,3,4,5,6,7,8,1,
{16}3,4,5,6,7,8,1,2,
{639}4,,,,,,,,,,,,,,,,,,,,
{641}5,,,,,,,,,,,,,,,,,,,,
{639}6,,,,,,,,,,,,,,,,,,,,
{641}7,,,,,,,,,,,,,,,,,,,,
{639}8,,,,,,,,,,,,,,,,,,,,
{641}1,,,,,,,,,,,,,,,,,,,,
{639}2,,,,,,,,,,,,,,,,,,,,
{641}3,,,,,,,,,,,,,,,,,,,,
{639}4b,,,,,,,,,,,,,,,,,,,,
{641}5,,,,,,,,,,,,,,,,,,,,
{639}6,,,,,,,,,,,,,,,,,,,,
{641}7,,,,,,,,,,,,,,,,,,,,
{639}8,,,,,,,,,,,,,,,,,,,,
{641}1,,,,,,,,,,,,,,,,,,,,
{639}2,,,,,,,,,,,,,,,,,,,,
{641}3,,,,,,,,,,,,,,,,,,,,
{16}5,6,7,8,1,2,3,4,6,7,8,1,2,3,4,5,
{16}7,8,1,2,3,4,5,6,
{639}8,,,,,,,,,,,,,,,,,,,,
{641}1,,,,,,,,,,,,,,,,,,,,
{639}2,,,,,,,,,,,,,,,,,,,,
{641}3,,,,,,,,,,,,,,,,,,,,4,,,,,,,,,,,,,,,,,,,,
{639}5,,,,,,,,,,,,,,,,,,,,
{641}6,,,,,,,,,,,,,,,,,,,,
{639}7,,,,,,,,,,,,,,,,,,,,8b,,,,,,,,,,,,,,,,,,,,
{641}1,,,,,,,,,,,,,,,,,,,,
{639}2,,,,,,,,,,,,,,,,,,,,
{641}3,,,,,,,,,,,,,,,,,,,,
{639}4,,,,,,,,,,,,,,,,,,,,
{641}5,,,,,,,,,,,,,,,,,,,,
{639}6,,,,,,,,,,,,,,,,,,,,
{641}7,,,,,,,,,,,,,,,,,,,,
{12}1b,
{995}2,,,,,,,,,,,,,,,,,,,,,,,,,,,,,,,,,,,,,,,,,,,,,,,,,,,,,,,,,,,,,,,,,,,,,,,,,,,,,,,,,,,
{12}3,4/8,
{995}5,,,,,,,,,,,,,,,,,,,,,,,,,,,,,,,,,,,,,,,,,,,,,,,,,,,,,,,,,,,,,,,,,,,,,,,,,,,,,,,,,,,
{12}6,3/7,
{995}8,,,,,,,,,,,,,,,,,,,,,,,,,,,,,,,,,,,,,,,,,,,,,,,,,,,,,,,,,,,,,,,,,,,,,,,,,,,,,,,,,,,
{12}1,2/6,
{995}3,,,,,,,,,,,,,,,,,,,,,,,,,,,,,,,,,,,,,,,,,,,,,,,,,,,,,,,,,,,,,,,,,,,,,,,,,,,,,,,,,,,
{12}4,
{12}1/5,
{995}6,,,,,,,,,,,,,,,,,,,,,,,,,,,,,,,,,,,,,,,,,,,,,,,,,,,,,,,,,,,,,,,,,,,,,,,,,,,,,,,,,,,
{12}7,4/8,
{995}1,,,,,,,,,,,,,,,,,,,,,,,,,,,,,,,,,,,,,,,,,,,,,,,,,,,,,,,,,,,,,,,,,,,,,,,,,,,,,,,,,,,
{12}2,
{983}3b,,,,,,,,,,,,,,,,,,,,,,,,,,,,,,,,,,,,,,,,,
{625}4,,,,,,,,,,,,,,,,,,,,,,,,,,
{983}5,,,,,,,,,,,,,,,,,,,,,,,,,,,,,,,,,,,,,,,,,6,,,,,,,,,,,,,,,,,,,,,,,,,,,,,,,,,,,,,,,,,
{625}7,,,,,,,,,,,,,,,,,,,,,,,,,,
{983}8,,,,,,,,,,,,,,,,,,,,,,,,,,,,,,,,,,,,,,,,,1b,,,,,,,,,,,,,,,,,,,,,,,,,,,,,,,,,,,,,,,,,
{625}2,,,,,,,,,,,,,,,,,,,,,,,,,,
{983}3,,,,,,,,,,,,,,,,,,,,,,,,,,,,,,,,,,,,,,,,,4,,,,,,,,,,,,,,,,,,,,,,,,,,,,,,,,,,,,,,,,,
{625}5,,,,,,,,,,,,,,,,,,,,,,,,,,
{983}6,,,,,,,,,,,,,,,,,,,,,,,,,,,,,,,,,,,,,,,,,
{12}8,
{995}7,,,,,,,,,,,,,,,,,,,,,,,,,,,,,,,,,,,,,,,,,,,,,,,,,,,,,,,,,,,,,,,,,,,,,,,,,,,,,,,,,,,
{12}6,1/5,
{995}4,,,,,,,,,,,,,,,,,,,,,,,,,,,,,,,,,,,,,,,,,,,,,,,,,,,,,,,,,,,,,,,,,,,,,,,,,,,,,,,,,,,
{12}3,2/6,
{995}1,,,,,,,,,,,,,,,,,,,,,,,,,,,,,,,,,,,,,,,,,,,,,,,,,,,,,,,,,,,,,,,,,,,,,,,,,,,,,,,,,,,
{12}8,3/7,
{995}6,,,,,,,,,,,,,,,,,,,,,,,,,,,,,,,,,,,,,,,,,,,,,,,,,,,,,,,,,,,,,,,,,,,,,,,,,,,,,,,,,,,
{12}5,
{12}4/8,
{995}3,,,,,,,,,,,,,,,,,,,,,,,,,,,,,,,,,,,,,,,,,,,,,,,,,,,,,,,,,,,,,,,,,,,,,,,,,,,,,,,,,,,
{12}2,1/5,
{995}8,,,,,,,,,,,,,,,,,,,,,,,,,,,,,,,,,,,,,,,,,,,,,,,,,,,,,,,,,,,,,,,,,,,,,,,,,,,,,,,,,,,
{12}7,
{983}6b,,,,,,,,,,,,,,,,,,,,,,,,,,,,,,,,,,,,,,,,,
{625}5,,,,,,,,,,,,,,,,,,,,,,,,,,
{983}4,,,,,,,,,,,,,,,,,,,,,,,,,,,,,,,,,,,,,,,,,3,,,,,,,,,,,,,,,,,,,,,,,,,,,,,,,,,,,,,,,,,
{625}2,,,,,,,,,,,,,,,,,,,,,,,,,,
{983}1,,,,,,,,,,,,,,,,,,,,,,,,,,,,,,,,,,,,,,,,,8b,,,,,,,,,,,,,,,,,,,,,,,,,,,,,,,,,,,,,,,,,
{625}7,,,,,,,,,,,,,,,,,,,,,,,,,,
{983}6,,,,,,,,,,,,,,,,,,,,,,,,,,,,,,,,,,,,,,,,,5,,,,,,,,,,,,,,,,,,,,,,,,,,,,,,,,,,,,,,,,,
{625}4,,,,,,,,,,,,,,,,,,,,,,,,,,
{983}3,,,,,,,,,,,,,,,,,,,,,,,,,,,,,,,,,,,,,,,,,
{12}1,
{995}2,,,,,,,,,,,,,,,,,,,,,,,,,,,,,,,,,,,,,,,,,,,,,,,,,,,,,,,,,,,,,,,,,,,,,,,,,,,,,,,,,,,
{12}3,4/8,
{995}5,,,,,,,,,,,,,,,,,,,,,,,,,,,,,,,,,,,,,,,,,,,,,,,,,,,,,,,,,,,,,,,,,,,,,,,,,,,,,,,,,,,
{12}6,3/7,
{995}8,,,,,,,,,,,,,,,,,,,,,,,,,,,,,,,,,,,,,,,,,,,,,,,,,,,,,,,,,,,,,,,,,,,,,,,,,,,,,,,,,,,
{12}1,2/6,
{995}3,,,,,,,,,,,,,,,,,,,,,,,,,,,,,,,,,,,,,,,,,,,,,,,,,,,,,,,,,,,,,,,,,,,,,,,,,,,,,,,,,,,
{12}4,
{12}1/5,
{995}6,,,,,,,,,,,,,,,,,,,,,,,,,,,,,,,,,,,,,,,,,,,,,,,,,,,,,,,,,,,,,,,,,,,,,,,,,,,,,,,,,,,
{12}7,4/8,
{995}1,,,,,,,,,,,,,,,,,,,,,,,,,,,,,,,,,,,,,,,,,,,,,,,,,,,,,,,,,,,,,,,,,,,,,,,,,,,,,,,,,,,
{12}2,
{983}3b,,,,,,,,,,,,,,,,,,,,,,,,,,,,,,,,,,,,,,,,,
{625}4,,,,,,,,,,,,,,,,,,,,,,,,,,
{983}5,,,,,,,,,,,,,,,,,,,,,,,,,,,,,,,,,,,,,,,,,6,,,,,,,,,,,,,,,,,,,,,,,,,,,,,,,,,,,,,,,,,
{625}7,,,,,,,,,,,,,,,,,,,,,,,,,,
{983}8,,,,,,,,,,,,,,,,,,,,,,,,,,,,,,,,,,,,,,,,,1b,,,,,,,,,,,,,,,,,,,,,,,,,,,,,,,,,,,,,,,,,
{625}2,,,,,,,,,,,,,,,,,,,,,,,,,,
{983}3,,,,,,,,,,,,,,,,,,,,,,,,,,,,,,,,,,,,,,,,,4,,,,,,,,,,,,,,,,,,,,,,,,,,,,,,,,,,,,,,,,,
{625}5,,,,,,,,,,,,,,,,,,,,,,,,,,
{983}6,,,,,,,,,,,,,,,,,,,,,,,,,,,,,,,,,,,,,,,,,
{12}8,
{995}7,,,,,,,,,,,,,,,,,,,,,,,,,,,,,,,,,,,,,,,,,,,,,,,,,,,,,,,,,,,,,,,,,,,,,,,,,,,,,,,,,,,
{12}6,1/5,
{995}4,,,,,,,,,,,,,,,,,,,,,,,,,,,,,,,,,,,,,,,,,,,,,,,,,,,,,,,,,,,,,,,,,,,,,,,,,,,,,,,,,,,
{12}3,2/6,
{995}1,,,,,,,,,,,,,,,,,,,,,,,,,,,,,,,,,,,,,,,,,,,,,,,,,,,,,,,,,,,,,,,,,,,,,,,,,,,,,,,,,,,
{12}8,3/7,
{995}2/6,,,,,,,,,,,,,,,,,,,,,,,,,,,,,,,,,,,,,,,,,,,,,,,,,,,,,,,,,,,,,,,,,,,,,,,,,,,,,,,,,,,
{24}1/5,,
{16},,,,,,1/8,1/8,1/8,,1/8,,1/8,,1/8,1/8,
{639}1b,,,,,,,,,,,,,,,,,,,,
{641}2,,,,,,,,,,,,,,,,,,,,
{639}3,,,,,,,,,,,,,,,,,,,,
{641}4,,,,,,,,,,,,,,,,,,,,
{639}5,,,,,,,,,,,,,,,,,,,,
{641}6,,,,,,,,,,,,,,,,,,,,
{639}7,,,,,,,,,,,,,,,,,,,,
{641}8,,,,,,,,,,,,,,,,,,,,
{639}1,,,,,,,,,,,,,,,,,,,,
{641}2,,,,,,,,,,,,,,,,,,,,
{639}3,,,,,,,,,,,,,,,,,,,,
{641}4,,,,,,,,,,,,,,,,,,,,
{639}5,,,,,,,,,,,,,,,,,,,,
{641}6,,,,,,,,,,,,,,,,,,,,
{639}7,,,,,,,,,,,,,,,,,,,,
{641}8,,,,,,,,,,,,,,,,,,,,
{639}1b,,,,,,,,,,,,,,,,,,,,
{641}2,,,,,,,,,,,,,,,,,,,,
{639}3,,,,,,,,,,,,,,,,,,,,
{641}4,,,,,,,,,,,,,,,,,,,,
{639}5,,,,,,,,,,,,,,,,,,,,
{641}6,,,,,,,,,,,,,,,,,,,,
{639}7,,,,,,,,,,,,,,,,,,,,
{641}8,,,,,,,,,,,,,,,,,,,,
{639}1,,,,,,,,,,,,,,,,,,,,
{641}2,,,,,,,,,,,,,,,,,,,,
{639}3,,,,,,,,,,,,,,,,,,,,
{641}4,,,,,,,,,,,,,,,,,,,,
{639}5,,,,,,,,,,,,,,,,,,,,
{641}6,,,,,,,,,,,,,,,,,,,,
{639}7,,,,,,,,,,,,,,,,,,,,
{641}8,,,,,,,,,,,,,,,,,,,,
{639}5b,,,,,,,,,,,,,,,,,,,,
{641}4,,,,,,,,,,,,,,,,,,,,
{639}3,,,,,,,,,,,,,,,,,,,,
{641}2,,,,,,,,,,,,,,,,,,,,
{639}1,,,,,,,,,,,,,,,,,,,,
{641}8,,,,,,,,,,,,,,,,,,,,
{639}7,,,,,,,,,,,,,,,,,,,,
{641}6,,,,,,,,,,,,,,,,,,,,
{639}5,,,,,,,,,,,,,,,,,,,,
{641}4,,,,,,,,,,,,,,,,,,,,
{639}3,,,,,,,,,,,,,,,,,,,,
{641}2,,,,,,,,,,,,,,,,,,,,
{639}1,,,,,,,,,,,,,,,,,,,,
{641}8,,,,,,,,,,,,,,,,,,,,
{639}7,,,,,,,,,,,,,,,,,,,,
{641}6,,,,,,,,,,,,,,,,,,,,
{639}5b,,,,,,,,,,,,,,,,,,,,
{641}4,,,,,,,,,,,,,,,,,,,,
{639}3,,,,,,,,,,,,,,,,,,,,
{641}2,,,,,,,,,,,,,,,,,,,,
{639}1,,,,,,,,,,,,,,,,,,,,
{641}8,,,,,,,,,,,,,,,,,,,,
{639}7,,,,,,,,,,,,,,,,,,,,
{641}6,,,,,,,,,,,,,,,,,,,,
{639}5,,,,,,,,,,,,,,,,,,,,
{641}4,,,,,,,,,,,,,,,,,,,,
{639}3,,,,,,,,,,,,,,,,,,,,
{641}2,,,,,,,,,,,,,,,,,,,,
{639}1,,,,,,,,,,,,,,,,,,,,
{641}8,,,,,,,,,,,,,,,,,,,,
{639}7,,,,,,,,,,,,,,,,,,,,
{641}6,,,,,,,,,,,,,,,,,,,,
{639}2b,,,,,,,,,,,,,,,,,,,,
{641}3,,,,,,,,,,,,,,,,,,,,
{639}4,,,,,,,,,,,,,,,,,,,,
{641}5,,,,,,,,,,,,,,,,,,,,
{639}6,,,,,,,,,,,,,,,,,,,,
{641}7,,,,,,,,,,,,,,,,,,,,
{639}8,,,,,,,,,,,,,,,,,,,,
{641}1,,,,,,,,,,,,,,,,,,,,
{639}2,,,,,,,,,,,,,,,,,,,,
{641}3,,,,,,,,,,,,,,,,,,,,
{639}4,,,,,,,,,,,,,,,,,,,,
{641}5,,,,,,,,,,,,,,,,,,,,
{639}6,,,,,,,,,,,,,,,,,,,,
{641}7,,,,,,,,,,,,,,,,,,,,
{639}8,,,,,,,,,,,,,,,,,,,,
{641}1,,,,,,,,,,,,,,,,,,,,
{639}2b,,,,,,,,,,,,,,,,,,,,
{641}3,,,,,,,,,,,,,,,,,,,,
{639}4,,,,,,,,,,,,,,,,,,,,
{641}5,,,,,,,,,,,,,,,,,,,,6,,,,,,,,,,,,,,,,,,,,
{639}7,,,,,,,,,,,,,,,,,,,,
{641}8,,,,,,,,,,,,,,,,,,,,
{639}1,,,,,,,,,,,,,,,,,,,,
{641}2,,,,,,,,,,,,,,,,,,,,
{639}3,,,,,,,,,,,,,,,,,,,,
{641}4,,,,,,,,,,,,,,,,,,,,
{639}5,,,,,,,,,,,,,,,,,,,,6,,,,,,,,,,,,,,,,,,,,
{641}7,,,,,,,,,,,,,,,,,,,,
{639}8,,,,,,,,,,,,,,,,,,,,
{641}1,,,,,,,,,,,,,,,,,,,,
{639}6b,,,,,,,,,,,,,,,,,,,,
{641}5,,,,,,,,,,,,,,,,,,,,
{639}4,,,,,,,,,,,,,,,,,,,,
{641}3,,,,,,,,,,,,,,,,,,,,
{639}2,,,,,,,,,,,,,,,,,,,,
{641}1,,,,,,,,,,,,,,,,,,,,
{639}8,,,,,,,,,,,,,,,,,,,,
{641}7,,,,,,,,,,,,,,,,,,,,
{639}6,,,,,,,,,,,,,,,,,,,,
{641}5,,,,,,,,,,,,,,,,,,,,
{639}4,,,,,,,,,,,,,,,,,,,,
{641}3,,,,,,,,,,,,,,,,,,,,
{639}2,,,,,,,,,,,,,,,,,,,,
{641}1,,,,,,,,,,,,,,,,,,,,
{639}8,,,,,,,,,,,,,,,,,,,,
{641}7,,,,,,,,,,,,,,,,,,,,
{12}4b/6b,
{995}3/5,,,,,,,,,,,,,,,,,,,,,,,,,,,,,,,,,,,,,,,,,,,,,,,,,,,,,,,,,,,,,,,,,,,,,,,,,,,,,,,,,,,
{12}2/4,1b/3b,
{995}2/8,,,,,,,,,,,,,,,,,,,,,,,,,,,,,,,,,,,,,,,,,,,,,,,,,,,,,,,,,,,,,,,,,,,,,,,,,,,,,,,,,,,
{12}1/7,
{639}8b,,,,,,,,,,,,,,,,,,,,
{641}7,,,,,,,,,,,,,,,,,,,,
{639}6,,,,,,,,,,,,,,,,,,,,
{641}5,,,,,,,,,,,,,,,,,,,,
{639}4,,,,,,,,,,,,,,,,,,,,
{641}3,,,,,,,,,,,,,,,,,,,,
{639}2,,,,,,,,,,,,,,,,,,,,
{641}1,,,,,,,,,,,,,,,,,,,,
{639}8,,,,,,,,,,,,,,,,,,,,
{641}7,,,,,,,,,,,,,,,,,,,,
{639}6,,,,,,,,,,,,,,,,,,,,
{641}5,,,,,,,,,,,,,,,,,,,,
{639}4,,,,,,,,,,,,,,,,,,,,
{641}3,,,,,,,,,,,,,,,,,,,,
{639}2,,,,,,,,,,,,,,,,,,,,
{641}1,,,,,,,,,,,,,,,,,,,,
{639}8,,,,,,,,,,,,,,,,,,,,
{641}7,,,,,,,,,,,,,,,,,,,,
{639}6,,,,,,,,,,,,,,,,,,,,
{641}5,,,,,,,,,,,,,,,,,,,,
{639}4,,,,,,,,,,,,,,,,,,,,
{641}3,,,,,,,,,,,,,,,,,,,,
{639}2,,,,,,,,,,,,,,,,,,,,
{641}1,,,,,,,,,,,,,,,,,,,,
{639}8,,,,,,,,,,,,,,,,,,,,
{641}7,,,,,,,,,,,,,,,,,,,,
{639}6,,,,,,,,,,,,,,,,,,,,
{641}5,,,,,,,,,,,,,,,,,,,,
{639}4,,,,,,,,,,,,,,,,,,,,
{641}3,,,,,,,,,,,,,,,,,,,,2,,,,,,,,,,,,,,,,,,,,
{639}1,,,,,,,,,,,,,,,,,,,,
{641}4b,,,,,,,,,,,,,,,,,,,,
{639}5,,,,,,,,,,,,,,,,,,,,
{641}6,,,,,,,,,,,,,,,,,,,,
{639}7,,,,,,,,,,,,,,,,,,,,
{641}8,,,,,,,,,,,,,,,,,,,,
{639}1,,,,,,,,,,,,,,,,,,,,2,,,,,,,,,,,,,,,,,,,,
{641}3,,,,,,,,,,,,,,,,,,,,
{639}4,,,,,,,,,,,,,,,,,,,,
{641}5,,,,,,,,,,,,,,,,,,,,
{639}6,,,,,,,,,,,,,,,,,,,,
{641}7,,,,,,,,,,,,,,,,,,,,
{639}8,,,,,,,,,,,,,,,,,,,,
{641}1,,,,,,,,,,,,,,,,,,,,
{639}2,,,,,,,,,,,,,,,,,,,,
{641}3,,,,,,,,,,,,,,,,,,,,
{639}4b,,,,,,,,,,,,,,,,,,,,
{641}5,,,,,,,,,,,,,,,,,,,,
{639}6,,,,,,,,,,,,,,,,,,,,
{641}7,,,,,,,,,,,,,,,,,,,,
{639}8,,,,,,,,,,,,,,,,,,,,
{641}1,,,,,,,,,,,,,,,,,,,,
{639}2,,,,,,,,,,,,,,,,,,,,
{641}3,,,,,,,,,,,,,,,,,,,,
{639}4,,,,,,,,,,,,,,,,,,,,
{641}5,,,,,,,,,,,,,,,,,,,,
{639}6,,,,,,,,,,,,,,,,,,,,
{641}7,,,,,,,,,,,,,,,,,,,,
{639}8,,,,,,,,,,,,,,,,,,,,
{641}1,,,,,,,,,,,,,,,,,,,,
{639}2,,,,,,,,,,,,,,,,,,,,
{641}3,,,,,,,,,,,,,,,,,,,,
{639}7b,,,,,,,,,,,,,,,,,,,,
{641}6,,,,,,,,,,,,,,,,,,,,
{639}5,,,,,,,,,,,,,,,,,,,,
{641}4,,,,,,,,,,,,,,,,,,,,
{639}3,,,,,,,,,,,,,,,,,,,,
{641}2,,,,,,,,,,,,,,,,,,,,
{639}1,,,,,,,,,,,,,,,,,,,,
{641}8,,,,,,,,,,,,,,,,,,,,
{639}7,,,,,,,,,,,,,,,,,,,,
{641}6,,,,,,,,,,,,,,,,,,,,
{639}5,,,,,,,,,,,,,,,,,,,,
{641}4,,,,,,,,,,,,,,,,,,,,
{639}3,,,,,,,,,,,,,,,,,,,,
{641}2,,,,,,,,,,,,,,,,,,,,
{639}1,,,,,,,,,,,,,,,,,,,,
{641}8,,,,,,,,,,,,,,,,,,,,
{639}7b,,,,,,,,,,,,,,,,,,,,
{641}6,,,,,,,,,,,,,,,,,,,,
{639}5,,,,,,,,,,,,,,,,,,,,
{641}4,,,,,,,,,,,,,,,,,,,,
{639}3,,,,,,,,,,,,,,,,,,,,
{641}2,,,,,,,,,,,,,,,,,,,,
{639}1,,,,,,,,,,,,,,,,,,,,
{641}8,,,,,,,,,,,,,,,,,,,,
{639}7,,,,,,,,,,,,,,,,,,,,
{641}6,,,,,,,,,,,,,,,,,,,,
{639}5,,,,,,,,,,,,,,,,,,,,
{641}4,,,,,,,,,,,,,,,,,,,,
{639}3,,,,,,,,,,,,,,,,,,,,
{641}2,,,,,,,,,,,,,,,,,,,,
{639}1,,,,,,,,,,,,,,,,,,,,
{641}8,,,,,,,,,,,,,,,,,,,,
{639}3b,,,,,,,,,,,,,,,,,,,,
{641}4,,,,,,,,,,,,,,,,,,,,
{639}5,,,,,,,,,,,,,,,,,,,,
{641}6,,,,,,,,,,,,,,,,,,,,
{639}7,,,,,,,,,,,,,,,,,,,,
{641}8,,,,,,,,,,,,,,,,,,,,
{639}1,,,,,,,,,,,,,,,,,,,,
{641}2,,,,,,,,,,,,,,,,,,,,3,,,,,,,,,,,,,,,,,,,,
{639}4,,,,,,,,,,,,,,,,,,,,
{641}5,,,,,,,,,,,,,,,,,,,,
{639}6,,,,,,,,,,,,,,,,,,,,
{641}7,,,,,,,,,,,,,,,,,,,,
{639}8,,,,,,,,,,,,,,,,,,,,
{641}1,,,,,,,,,,,,,,,,,,,,
{639}2,,,,,,,,,,,,,,,,,,,,
{12}3b/5b,
{995}4/6,,,,,,,,,,,,,,,,,,,,,,,,,,,,,,,,,,,,,,,,,,,,,,,,,,,,,,,,,,,,,,,,,,,,,,,,,,,,,,,,,,,
{12}5/7,6b/8b,
{995}1/7,,,,,,,,,,,,,,,,,,,,,,,,,,,,,,,,,,,,,,,,,,,,,,,,,,,,,,,,,,,,,,,,,,,,,,,,,,,,,,,,,,,
{12}2/8,
{4}3/1s5[2:1],,,
{16}1bs5[16:19],,,,,,,{1},,
E
