&title=[宴] スイートマジック
&artist=ろん×Junky
&wholebpm=123
&demo_seek=69.9
&demo_len=15.1
&lv_7=撫
&inote_7=(123.0){1},,
{4}3>6[4:1],6?<3[4:1],3?>6[4:1],6?<3[4:1],
{4}3?>6[4:1],6?<3[4:1],,,
{4}6<3[4:1],3?>6[4:1],6?<3[4:1],3?>6[4:1],
{4}6?<3[4:1],3?>6[4:1],,,
{4}2^5[4:1],5?q2[4:1],2?^5[4:1],5?q2[4:1],
{4}2?^5[4:1],5?q2[4:1],,,
{4}7^4[4:1],4?p7[4:1],7?^4[4:1],4?p7[4:1],
{4}7?^4[4:1],4?p7[4:1],,,
{4}4^1[4:1]/8^5[4:1],,1?^4[12300.00#1:25]/5?^8[12300.00#1:25],4?^1[12300.00#1:25]/8?^5[12300.00#1:25],
{4}1?^4[12300.00#1:25]/5?^8[12300.00#1:25],4?^1[12300.00#1:25]/8?^5[12300.00#1:25],1?^4[12300.00#1:25]/5?^8[12300.00#1:25],,
{4}1^4[4:1]/5^8[4:1],,4?^1[12300.00#1:25]/8?^5[12300.00#1:25],1?^4[12300.00#1:25]/5?^8[12300.00#1:25],
{4}4?^1[12300.00#1:25]/8?^5[12300.00#1:25],1?^4[12300.00#1:25]/5?^8[12300.00#1:25],4?^1[12300.00#1:25]/8?^5[12300.00#1:25],,
{4}2^5[4:1]/6^1[4:1],,1?^6[12300.00#1:25]/5?^2[12300.00#1:25],2?^5[12300.00#1:25]/6?^1[12300.00#1:25],
{4}1?^6[12300.00#1:25]/5?^2[12300.00#1:25],2?^5[12300.00#1:25]/6?^1[12300.00#1:25],1?^6[12300.00#1:25]/5?^2[12300.00#1:25],,
{4}3^8[4:1]/7^4[4:1],,4?^7[12300.00#1:25]/8?^3[12300.00#1:25],3?^8[12300.00#1:25]/7?^4[12300.00#1:25],
{4}4?^7[12300.00#1:25]/8?^3[12300.00#1:25],3?^8[12300.00#1:25]/7?^4[12300.00#1:25],4?^7[12300.00#1:25]/8?^3[12300.00#1:25],,
{4}4^1[4:1]/5p8[4:1],,1?-4[12300.00#1:25]/8?-5[12300.00#1:25],4?^1[12300.00#1:25]/5?p8[12300.00#1:25],
{4}1?-4[12300.00#1:25]/8?-5[12300.00#1:25],4?^1[12300.00#1:25]/5?p8[12300.00#1:25],1?^6[12300.00#1:25],,
{4}4q1[4:1]/5^8[4:1],,1?-4[12300.00#1:25]/8?-5[12300.00#1:25],4?q1[12300.00#1:25]/5?^8[12300.00#1:25],
{4}1?-4[12300.00#1:25]/8?-5[12300.00#1:25],4?q1[12300.00#1:25]/5?^8[12300.00#1:25],8?^3[12300.00#1:25],,
{4}3^8[4:1]/4p7[4:1],,7?-4[12300.00#1:25]/8?-3[12300.00#1:25],3?^8[12300.00#1:25]/4?p7[12300.00#1:25],
{4}7?-4[12300.00#1:25]/8?-3[12300.00#1:25],3?^8[12300.00#1:25]/4?p7[12300.00#1:25],8?^5[12300.00#1:25],,
{4}5^2[4:1]/6p1[4:1],,1?-6[12300.00#1:25]/2?-5[12300.00#1:25],5?^2[12300.00#1:25]/6?p1[12300.00#1:25],
{4}1?-6[12300.00#1:25]/2?-5[12300.00#1:25],5?^2[12300.00#1:25]/6?p1[12300.00#1:25],2?^7[12300.00#1:25],,
{4}2^7[4:1],,7?^2[12300.00#1:25],2?^7[12300.00#1:25],
{4}7?^2[12300.00#1:25],2?^7[12300.00#1:25],7?^2[12300.00#1:25],,
{4}7^2[4:1],,2?^7[12300.00#1:25],7?^2[12300.00#1:25],
{4}2?^7[12300.00#1:25],7?^2[12300.00#1:25],2?^7[12300.00#1:25],,
{4}2q7[4:1]/3^6[4:1],,6?^3[12300.00#1:25]/7?p2[12300.00#1:25],2?q7[12300.00#1:25]/3?^6[12300.00#1:25],
{4}6?^3[12300.00#1:25]/7?p2[12300.00#1:25],2?q7[12300.00#1:25]/3?^6[12300.00#1:25],6?^3[12300.00#1:25]/7?p2[12300.00#1:25],,
{4}6^3[4:1]/7p2[4:1],,2?q7[12300.00#1:25]/3?^6[12300.00#1:25],6?^3[12300.00#1:25]/7?p2[12300.00#1:25],
{4}2?q7[12300.00#1:25]/3?^6[12300.00#1:25],6?^3[12300.00#1:25]/7?p2[12300.00#1:25],2?q3[12300.00#2:75]/3?<2[12300.00#2:75],,
{4}4-2[4:1]/7-5[4:1],,2?-4[12300.00#1:25]/5?-7[12300.00#1:25],4?-2[12300.00#1:25]/7?-5[12300.00#1:25],
{4}2?-4[12300.00#1:25]/5?-7[12300.00#1:25],4?-2[12300.00#1:25]/7?-5[12300.00#1:25],,1pp1[4:1]/8qq8[4:1],
{4},1?pp1[12300.00#1:25]/8?qq8[12300.00#1:25],1?pp1[12300.00#1:25]/8?qq8[12300.00#1:25],1?pp1[12300.00#1:25]/8?qq8[12300.00#1:25],
{4}1?pp1[12300.00#1:25]/8?qq8[12300.00#1:25],1?pp1[12300.00#1:25]/8?qq8[12300.00#1:25],,4qq4[4:1]/5pp5[4:1],
{4},4?qq4[12300.00#1:25]/5?pp5[12300.00#1:25],4?qq4[12300.00#1:25]/5?pp5[12300.00#1:25],4?qq4[12300.00#1:25]/5?pp5[12300.00#1:25],
{4}4?qq4[12300.00#1:25]/5?pp5[12300.00#1:25],4?qq4[12300.00#1:25]/5?pp5[12300.00#1:25],,1qq1[4:1]/2pp2[4:1],
{4},1?qq1[12300.00#1:25]/2?pp2[12300.00#1:25],1?qq1[12300.00#1:25]/2?pp2[12300.00#1:25],1?qq1[12300.00#1:25]/2?pp2[12300.00#1:25],
{4}1?qq1[12300.00#1:25]/2?pp2[12300.00#1:25],1?qq1[12300.00#1:25]/2?pp2[12300.00#1:25],,7qq7[4:1]/8pp8[4:1],
{4},7?qq7[12300.00#1:25]/8?pp8[12300.00#1:25],7?qq7[12300.00#1:25]/8?pp8[12300.00#1:25],7?qq7[12300.00#1:25]/8?pp8[12300.00#1:25],
{4}7?qq7[12300.00#1:25]/8?pp8[12300.00#1:25],7?qq7[12300.00#1:25]/8?pp8[12300.00#1:25],,7b/2b>2[1:1],{1},
{1}2?>2[12300.00#1:100],
{1}2?>2[12300.00#1:100],
{1}2?>8[12300.00#1:75],
{16}1^4[16:3],,,,,,,4?q5[12300.00#4:125],,,,,,,,,
{16}8^5[16:3],,,,,,,5?p4[12300.00#4:125],,,,,,,,,
{4}1^4[4:1]/7^4[4:1],,4?pp4[12300.00#1:25]*qq4[12300.00#1:25],4?pp4[12300.00#1:25]*qq4[12300.00#1:25],
{4}4?pp4[12300.00#1:25]*qq4[12300.00#1:25],4?pp4[12300.00#1:25]*qq4[12300.00#1:25],,4qq4[4:1]/8qq8[4:1],
{4},4?qq4[12300.00#1:25]/8?qq8[12300.00#1:25],4?qq4[12300.00#1:25]/8?qq8[12300.00#1:25],4?qq4[12300.00#1:25]/8?qq8[12300.00#1:25],
{4}4?qq4[12300.00#1:25]/8?qq8[12300.00#1:25],4?qq4[12300.00#1:25]/8?qq8[12300.00#1:25],,1pp1[4:1]/5pp5[4:1],
{4},1?pp1[12300.00#1:25]/5?pp5[12300.00#1:25],1?pp1[12300.00#1:25]/5?pp5[12300.00#1:25],1?pp1[12300.00#1:25]/5?pp5[12300.00#1:25],
{4}1?pp1[12300.00#1:25]/5?pp5[12300.00#1:25],1?pp1[12300.00#1:25]/5?pp5[12300.00#1:25],,2pp2[4:1]/6pp6[4:1],
{4},2?pp2[12300.00#1:25]/6?pp6[12300.00#1:25],2?pp2[12300.00#1:25]/6?pp6[12300.00#1:25],2?pp2[12300.00#1:25]/6?pp6[12300.00#1:25],
{4}2?pp2[12300.00#1:25]/6?pp6[12300.00#1:25],2?pp2[12300.00#1:25]/6?pp6[12300.00#1:25],,3qq3[4:1]/7qq7[4:1],
{4},3?qq3[12300.00#1:25]/7?qq7[12300.00#1:25],3?qq3[12300.00#1:25]/7?qq7[12300.00#1:25],3?qq3[12300.00#1:25]/7?qq7[12300.00#1:25],
{4}3?qq3[12300.00#1:25]/7?qq7[12300.00#1:25],3?qq3[12300.00#1:25]/7?qq7[12300.00#1:25],,2b/7b,
{4}2b/7b,1>1[4:1],,1?>1[12300.00#1:25],
{4}1?>1[12300.00#1:25],1?>1[12300.00#1:25],1?>1[12300.00#1:25],1?>1[12300.00#1:25],
{4}1?>1[12300.00#1:25],1?>1[12300.00#1:25],,4qq4[4:1]/5pp5[4:1],
{4},4?qq4[12300.00#1:25]/5?pp5[12300.00#1:25],4?qq3[12300.00#1:25]/5?pp6[12300.00#1:25],3?qq5[12300.00#1:25]/6?pp4[12300.00#1:25],,
E
