&title=Deicide
&artist=void (Mournfinale) feat. 古泉葉月
&first=0
&des=
&des_4=鳩ホルダー
&des_5=サファ太
&lv_4=12
&lv_5=14
&inote_4=(163){1},,
{4}
3<6[4:3],,,,
7p3[4:3],,,,
2<4[4:5],,,,
,,,36,
{8}
1b/8b,,2,2,,34,34,,
5h[4:1],,6h[4:1],,7h[4:1],,8,,
18,,7,7,,56,56,,
4h[4:1],,3h[4:1],,2h[4:1],,1,,
2,2,1,3<6[8:1],,8x,8x,,
7,7,8,6>3[8:1],,1x,1x,,
2/3s7[2:1],,,,,,8V24[2:1]*V64[2:1],,
,,,,,,35,,
1b/7b,,6,6,,57,57,,
8h[4:1],,1h[4:1],,2h[4:1],,3,,
24,,1,1,,78,78,,
56,,24,24,,57,57,,
3h[4:1],,1h[4:1],,8h[4:1],,6,6,
6h[4:1],,8h[4:1],,1h[4:1],,3>5[4:3],,
,,,,,,4w8[2:1],,
,,,,,,17,26,
5b/3bh[1:2],,,,E4,,E3,,E2,,C,,E5,,,,
6h[1:2],,,,E6,,E7,,E8,,C,,E5,,,,
2h[4:1],,4,4,,3,3,,
7h[4:1],,5,5,,6,6,,
3,3,7,7,2,2,8,8,
1h[4:3],,,,,,7p4>5b[2:3],,
Cf,,,,,,,,
,,,,,,45,,
{8}
1b/6b,,3h[8:1]/4h[8:1],,6h[8:1]/7h[8:1],,1h[8:1]/2h[8:1],,
4h[8:1]/5h[8:1],,7h[8:1]/8h[8:1],,{16}1h[16:3],,,4h[16:3],,,3,,
{8}3h[8:1]/5h[8:1],,7h[8:1]/8h[8:1],,1h[8:1]/2h[8:1],,4h[8:1]/6h[8:1],,
35,35,5/3v8[8:1],,,,1x,,
2b/8b-5[8:1],,4-1[8:1],,7-2[8:1],,3-6[8:1],,
8-5[8:1],,{16}4,,,3x,3xh[16:3],,,4x,,,2x/5x,,
{8}5x/2x-7[8:1],,6-3[8:1],,1-4[8:1],,5,,
56,56,56,,7-3[8:1]/8-4[8:1],,,,
5b/2b-5[8:1],,6-1[8:1],,3-8[8:1],,7-4[8:1],,
2-5[8:1],,6,,{16}7x,7xh[8:1],,8x,,,1x/6x,,
{8}1x/6x-1[8:1],,2-5[8:1],,7-4[8:1],,3,,
25,25,2/5h[4:1],,{12}E2,E3,E4,E8,E7,E6,
{16}4bx,,,,1,8,1,8,1h[16:3],,,2h[16:3],,,3,,
{4}3x>1[8:1]*<6[8:1],,{12}7x/8x,7x/8x,7x/8x,7x/8x,,,
{1}5bh[4:7]/2bq5<4b[2:3],,
{8}
A3/A4/A7/A8/B3/B4/B7/B8/Cf,,,,,,,,
,,,,,,,,
2h[2:3],,4,4pp1[8:5],,,,,
,,,,8,,7,,
6h[4:1],,5,5h[4:1],,7,7,,
3,3h[4:1],,4h[4:1],,2,2,,
1h[4:1],,,2h[4:1]/8h[4:1],,,3qq4[4:3]/7pp6[4:3],,
,,,,,,,,
E5f,,E6,,E7,,E8,,E1,,E2,,E3,,E4,,
B5,B6,B7,B8,B1,B2,B3,B4,Ch[2:1],,,,,,,,
{16}
1b/8b,,,,34,,,,67,,,,12,,,,
45,,,,78,,,6x,6xh[8:1],,5xh[16:3],,,7xh[16:3],,,
8,,8,,78,,,,34,,,,12,,,,
38,,,2,2h[8:1],,1,,38,,,7,7h[8:1],,8,,
16,,,,23,,,,56,,,,18,,,,
34,,,,{12}2x,2x,2x,2xh[6:1],,4xh[6:1],,3xh[6:1],,
{16}1,,1,,12,,,,57,,,24,,,1,8,
{4}1>8[2:1],,,,
2bpp5[4:5]/6bpp1[4:5],,,,,,,,
{8}
7/3h[8:11],,,,,,4,,
4h[8:11],,,,,,5,,
5h[8:11],,,,,,6,,
6h[1:1],,,,,,2,,
2h[4:3],,4,4-8[4:1],,,,,
7h[4:3],,5,5-1[4:1],,,,,
2,3,4,5,6,7,8z4[2:1],,
,,,,,,,,
4>5[1:1]/5<4[1:1],,,,,,,,
,,,,,,45,,
{16}
1b/8b,,,,3,4,3,,6,5,6,,2,4,2,,
7,5,7,,2,4,3,,7h[16:3],,,5h[16:3],,,6,,
56,,,2bx/8bx,,,3,4,3,,,1bx/7bx,,,6,5,
6,,,1bx/2bx,,,3,4,3,,,7bx/8bx,,,16,,
7,8,7,8,7,,2,1,2,1,2,,1pp4[2:1]/8qq5[2:1],,,,
,,,,,,,,,,,,45,,,,
{12}27,27,27,{8}2b/7b-4[8:1],,1-6[8:1],,3-8[8:1],,
5-2[8:1],,7-4[8:1],,1,1,1,,
12,38,,78,16,,34,25,
,56,4-1[8:1]/7-4[8:1],,,,25,,
{16}1,8,1,8,{8}1b-6[8:1],,8-3[8:1],,5-2[8:1],,
4-7[8:1],,1-6[8:1],,8,8,8,,
{16}7,8,7,8,7,8,7,,16,,,,2,1,2,1,
2,1,2,,38,,,,7,6,5,4,3,2,1,8,
7h[8:3]/Ch[1:1],,,,,,,,,,,,,,E6,E5,E4,,,,,,,,,,,,,,,,
&inote_5=(163)
{2},,,4h[16:4]/6h[16:4],
{8}4,5,3h[4:2],4h[8:3],,,,,{16}E3,B3,{8}5,4h[4:2],6h[8:3],,,,,
{8}B4/E5,6,7h[8:3],5h[8:2],,,7qq8[4:2]/5,,4^1[4:1],,,,,,18,,
{8}7b/2^5[8:2],,5,6,7^2-6[4:2],,5,,4h[2:1],,,,6-4[8:1],,2-6[8:1],,
{8}8h[4:1],,5,4,3^8-4[8:3],,5-7[8:1],,,,{16},,,,6,5,6,,4,5,4,,
{8}3-1^8[4:1],,8-4[4:1],7,6h[4:1],,,,
{8}3-7-1[8:4]/5h[4:1],,,,4,,4-6-8-3[2:1],,1h[4:3],,,,,,3>5[2:1],,3h[2:1],,,,,,46,,
{8}53,6,7,82,3,4,53,2,1^2-4[4:1],1,8,7,6h[4:1],5,4h[8:1],5,34,2,1,78,6,5,4,3,28,
{8}7-1[8:1]/3,64,37,,2,2,3,2/4-1[8:1],,3/4-7[8:1],,4/8-5[8:1],,1/8-3[8:1],,
{8}8/4-1[8:1]*-7[8:1],,4,,35,,4/6h[4:1],,{16}5,4,3,2,1,,65,4,3,2,1h[8:1],,
{16}7,8,7,8,7,6,5,4,1,2,3,4,1-5[8:1],8,7,6,{4}5/1b`Cf,
{2}7x>3[2:1],3<7-1-3[1:1],E4,E6,
{8}1h[8:2],,,8h[8:2]/2-5-3[8:3],,,,,8h[8:2],,,1h[8:2]/7-4-6[8:3],,,,,1x,,
{16}74,,6,5,6,5,6h[8:1],,4,5,4,5,4,,,,25,,3,4,3,4,3h[8:1],,5,4,5,4,
{4}5-7-1-3[4:3],3,1,7,Ch[2:1],,,,{32}1b,2p8[32:39]/8,37,4/6p4b[32:37],{8}5b,{2},,,
{4}1-5b[8:1],1b/8b,
{16}6,,75,,18,,3,4,2,,8,,75,,3,4,2,,8,,71,,3,5,4,6,5,,
{16}18,,6,5,7,,1,,24,,6,5,7,,1,,82,,64,,3/7-3[8:1],,82,,7x,,2,2,,4,34,,15,,
{16}7,8,6x,,75,,84,,2,1,3x,,24,,3x/5x,,6,5,7x,,8,8,1,,3,3,5-2[8:1]*-8[8:1],4,6,,,,,,
{16}3^5[8:1]/7^5[8:1],,,,37,,,,1,,,,{8}26,35,1pp4[16:5]/7qq4[16:5],,17,,,,
{16}3b/5b,,2,1,3,1,2,,84,,6,5,7,5,6,,2b/8b,,1,7,1,7,1,7,2,6,2,6,3,5,3,5,2,4,3,5,4,6,
{16}5,7,3,5,4,6,5,7,6,8,5,4,3,2,8,7,6,5,{12}1h,1h,1h,2h/8h,3h/7h,4h/6h,3bh/7bh,,,
{16}1,1,8,8,6hb[8:1],,,7hb[8:1]/5h[8:1],,,4b/2,,8bw4b[8:1]/C,,,,8b,,,,
{12}6-8[8:1]/2-8[8:1],62,62,6-4[8:1]/2-4[8:1],,,6/2-8-6>6>4b[4:5],,,{2}Cf,,,
{8}35,,2hb[8:3],,,3h[8:5],,,,,4h[8:3],,,5h[8:21],,,,,6b>2[2:1],,,,,,,,2>6[2:1],,,,,,,,
{8}6h[8:3],,,7h[8:5],,,,,8h[8:3],,,1h[8:19],,,2<6[2:1],,,,,,,,6<2[2:1],,,,,,,,,,
{16}3h[16:3]/5,,,4,3,,3,,3h[16:3]/5,,,4,3,,5,,6h[16:3]/4,,,5,6,,6,,6h[16:3]/4,,,
{16}5,6,,64,,4,5,4,5,3,6,3,6,2,7,2,7,{24}1-5[8:1],8,1,8,1,8,{4}1b,,
{16}48,37,26,15,8-4[8:1]/4,,,,
{16}8x/6-1[8:1],,,,6b/2-5[8:1],,,,2b/7-4[8:1],,,,7b/3-8[8:1],,,,3b/1-6[8:1],,,,
{16}1bb/5^8b[8:1],,,4,4/5b,,2b,,,2/1b,,,8b/4-6[8:1],,6b/2,,4b-2[8:1]/8-4[8:1],,,,
{16}4b/8-6-2[4:1],,,,2x/8b,,,,1hb[16:4],,,3b,3b,,5/4b,,5hb[8:1]/6h[8:1],,,
{16}7hb[8:1]/4h[8:1],,,3b/8,,2b/1-4[8:1],,,,1b/8-5b[8:1],,7,,6-3[8:1]/8b,,,,
{16}6b/4h[4:1],,,,1b,,,,{12}2b-5[8:1]/8b,2b/8,2/8b,{16}2b/8,,,6b,,,4b,,
{16}5v8[8:1]/3bv8[8:1],,6b/2,,3b/5,,,,1b,,,7b/3,,,{16}5b,5b,{4}5b<4[2:1],,,
{4}5w1b[8:1],{1}Cf/B1/B2/B3/B4/B5/B6/B7/B8/E1/E3/E5/E7,,
{2}5/4-8-2-6[4:4],5,6-2-4-8[4:4],7,8-4-6-2[4:4],1,2-6-8-4[4:4],3,
{4}4-6^7[2:1],,7-1-3[2:1],A1`B1,3-5^6[2:1],,6,8h[4:1],
{16}E7,E6,E5,E4,E3,E2,E1,E8,5,4,3,2,1-7-2-6-3-5b[4:3],8,7,6,{4}5/1b,,,,
{1}Ch[1:1],{4},,{32}1-5[8:1]/8-4[8:1],27,36,45,,,,,1b/8-6[8:1],,,,,,,,
{16}1/8^2[8:1],,3,3,8-4[8:1],,5,5,8,,1,,26,,26,,37,8,1,2,3,4,5,6,73,2,1,8,7,6,5,4,
{16}3/7b,,,2b/1,,,3,24,2/4b,,,7b/6,,,2,13,1/3b,,,5b/6,,,8,17,1b/7,,,4b/3,,,
{16}45,,6,6,5,7,1,,3,3,4,2,8h[8:1],,1,7,1,7,{24}1b,2,3,45,,,8b,7,6,54,,,
{16}2,5,3,4,1b,,,,
{12}2-5[8:1]/7-4[8:1],18,18,2b/7b`Cf/B4/B5,,,{16}16,,7,8,6,1,5,2,4,3,
{16}6,5,7,4,1,2,8,1,7,8,6hb[4:1],,,,
{16}5h,7,5h,7,1h,5,3h,1,5h,7,1b,1b,4h,2,8h,4,6h,2,4h,8,
{16}6h,4,8b,8b,1,,34,,16,,16,,{24}7v4[8:1]/8-4[8:1],6,5,3,2,1,7b/8b,,,,,,
{16}81,,2,1,3,8,4,7,5,6,
{16}3,4,2,5,8,7,1,8,2,1,3hb[4:1],,,,
{16}4h,2,4h,2,8h,4,6h,8,4h,2,8b,8b,5h,7,1h,7,5h,1,3h,7,{24}2b,1,2,1,2,1,
{24}2,3,4,57,6,5,4/1-5-1b[8:1],2,3,48,7,6,1b,,,
{4}8b^3[8:1],8b/2hb[8:5],{16},,,,3,4,5-8>5[8:6],
