&title=転生林檎
&artist=ピノキオピー
&first=0
&des=
&des_5=きょむりん
&lv_5=13
&inote_5=(145){4},,,,
{4}
3h[2:1]/4h[4:35],,,C,
3h[2:1],,,C,
3>5[2:1],,,,
5<3[2:1],,,,
3,3-7[4:1],,,
7,7-3[4:1],,,
3,1>3[4:1],,,
3,6<3[4:1],,,
3,1,5,7,
78,12,2q6[8:1]/3-6[8:1],2b/3b,
{16}
7x/8x,,78,,1,1,,6,,5,,4,,3,3,,
1x/2x,,12,,8,8,,3,,4,,5,,6,6,,
7x/8x,,78,,1,1,,6,,5,,4,,3,3,,
34,,,,34,,,,2q6[8:1]/3-6[8:1],,14,,23,,,,
{16}
57,,,,7,5,6,4,5,,,,3-5[8:1]/5-7[8:1],,,,
35,,,,7,5,6,4,5,,,,46,,,,
7,5,7,5,6,,,,7,5,7,5,6,,,,
56,,45,,3,4,3,,2-5[8:1]/6-1[8:1],,,,,,,,
5/1-6-3[4:1],,1/5h[4:1],,,,,,,,,,4x,4x,,,
4/2-5-8[4:1],,2/4h[4:1],,,,,,,,,,7<3[4:1]/8<3[4:1],,,,
,,,,,,,,1-5[8:1]/8-4[8:1],,,,18,,,,
3x/4x,,,2x/3x,,,1x/4x,,2q6[8:1]/3-6[8:1],,,,23,,,,
{16}
B7,,,,2,,4,4,3,,,,A5/B5,,,,
24,,,,3,,5,5,4,,,,A6/B6,,,,
3,4,3,,E3,,E5,,3,4,3,,E3,,E5,,
34,,34,,B2/E3,,B5/E5,,C,,,,B7/B8/E8,,,,
1/2-5-7[4:1],,2/1h[4:1],,,,,,,,,,8x,8x,,,
8/7-4-2[4:1],,7/8h[4:1],,,,,,,,,,1>6[4:1]/2>6[4:1],,,,
,,,,,,,,1-5[8:1]/8-4[4:1],,,,18,,,,
3x/4x,,,2x/3x,,,1x/4x,,2q6[8:1]/3-6[8:1],,,,23,,,,
{8}
7xs3[4:1],,3s7[4:1],,7,,8,,
56,,67,,6-3[8:1]/7p3[8:1],58,67,,
2xz6[4:1],,6z2[4:1],,2,,1,,
34,,23,,2q6[8:1]/3-6[8:1],14,23,,
6x/5x<7[8:1],,45,,5/6>4[8:1],,67,,
3/4>2[8:1],,45,,2/3>1[8:1],,34,,
2>4qq1[2:1]/6>4pp7[2:1],,,,,,,26,
2b/6b,,,,1-5[8:1]/8-4[8:1],,18,,
{16}
3/4x<7[8:1],,3,,34,,3,,3/4<7[8:1],,3,,34,,3,,
4bV68[4:1],,,,8V24[4:1],,,,4<8[4:1],,,,8,,,,
4,,,,7-4[8:1],,8-3[8:1],,7,,8,,7,,8,,
12,,3,,45,,6,,7h[8:1]/8h[8:1],,,,2>5[8:1]/6<1[8:1],,,,
26,,,,1h[4:3]/6>2[8:1],,6,,,,,,6>2[8:1],,6,,
,,,,12,,34,,3,,5,5,4,,6,,
5qq5[4:1],,,,5pp5[4:1],,,,,,,,4pp4[8:3]*qq4[8:3],,,,
,,,,,,,,3x/5x,,,,Cf,,,,
{16}
6/5>2[8:1],,6,,65,,6,,6/5>2[8:1],,6,,65,,6,,
5bV31[4:1],,,,1V75[4:1],,,,5>1[4:1],,,,1,,,,
5,,,,2b-5[8:1],,1b-6[8:1],,2b,,1b,,2,,1,,
78,,6,,45,,3,,1h[8:1]/2h[8:1],,,,3>8[8:1]/7<4[8:1],,,,
37,,,,8h[4:3]/3<7[8:1],,3,,,,,,3<7[8:1],,3,,
,,,,78,,7,,1,,8,8,2,,3,,
1/2-4[8:1],,,,2/1-7[8:1],,,,1/2-4[8:1],,,,2/1w5[2:1],,,,
1,,,,,,,,,,,,C,,,,
{4}
5/6<4[1:1],,5,5,5-1[2:1],,8,8,
1/8<2[1:1],,1,1,1-5[2:1],,6,6,
5/6<4[1:1],,5,5,5-8[4:1],,7,7/8bh[8:15],
1-6[8:1],1,1-6[8:1],1,6h[8:5],,,{32}1x,2x,3x,4x,5x,6x,7x,8x,
{16}
1bx,,,,8/7<3[8:1],,8,,78,,8,,8/7<3[8:1],,8,,
78,,8,,8bV64[4:1],,,,4V28[4:1],,,,8,,,,
4,,,,7-4[8:1],,8-3[8:1],,7,,8,,7,,8,,
12,,3,,45,,6,,2-5[8:1]/6-1[8:1],,,,2<7[8:1]/6>3[8:1],,,,
,,,,3-8[8:1]/4-7[8:1],,25,,,,,,7x-4[8:1]/8-3[8:1],,16,,
,,,,12,,34,,3,,5,5,4,,6,,
5qq5[4:1],,,,5pp5[4:1],,,,,,,,4pp4[4:1]*qq4[4:1],,,,
4>6[8:3],,,,,,,,,,,,C,,,,
{16}
8/7<3[8:1],,8,,78,,8,,8/7<3[8:1],,8,,78,,8,,
8b,,8b,,8bV64[4:1],,,,4V28[4:1],,,,8,,,,
4,,,,8/6>2>6b[8:3],,8,,68,,8,,8,,8,,
7b/8b,,,3b/4b,,,1b/2b,,2b-7b[8:1]/6b-3b[8:1],,,,2b/6b,,,,
1/2>6>2b[2:1],,1,,12,,1,,1,,1,,1,,1,,
2V46[4:1],,,,6V82[8:1],,,,2>6[8:1],,,,6,,,,
1-3[8:1]*-4[8:1],,,,1-6[8:1]*-7[8:1],,,,1-5[8:1],,,,1w5[1:1],,,,
{1},,
{4}
8bh[8:59]/7<5[4:1],,,4,
4<7[4:1],,,7,
7,7-3[4:1],,,
3,3-7[4:1],,,
7,1,3,7,
7,4,1,7,
7>6[2:1],,,,
1h[8:3],,1-4[8:1]/8-5[8:1],18,
