&title= 無間嫉妬劇場『666』
&artist=森羅万象
&first=0
&des=
&des_5=Jack
&lv_5=13
&inote_5=(108),,,,
{1}4b/6bx,
{8}
(103)6,(135)5,(150)4,(155)5,4,(153)3,
(154)6,(179)5,(170)4,(175)5,(170)4,(155)3,
(175)6,(190)4,(210)5,3,(194)4,(206)3,
(220)6,5,(231)7,(235)3,(251)5,4,
(254)6,4,(255)5,2,(284)4,3,
6,4,(277)5,3,(261)5,4,
(242)7,6,(188)5,2,(149)3,(179)4,
(168)5,6,(119)5,4,(137)3/7qq8[15776:17673],,(129)1h[121522800:167659963],,(119),,(111),,(153),(115),(100),{64},,,,,,E8,C,(116){8}E4,,,,,,,,
(148)
{8}
1/6b-4[8:1],,2-6[8:1],,1,,8,1/7h[4:1],
,5,5,4,26,{16}7,8,{8}7,,
3-5[8:1],,7-3[8:1],,8,,1,8/2h[4:1],
,4,3<6[8:1],,8,8,1/7-4[8:1],,
3-8[8:1],,5,,7,7,1,2h[4:1]/8h[4:1],
,,2/8<5[8:1],,1>4[8:1],,7,,
5-2[8:1]/6-1[8:1],,,,38,38,,1/B6/E7,
,8/B3/E3,,1x/8x,1x-5[8:1]/8x-4[8:1],,1b/8b,,
{8}
2h[4:1]/6h[8:5],,,4h[4:1],,,46,,
3h[8:5]/7h[4:1],,,5h[4:1],,,53,,
2h[4:1]/6h[8:5],,,4h[4:1],,,46,,
3h[4:1]/7h[4:1],,,46,,{24}5x,4,6,{8}5x,,
3/7h[4:1],,5,5h[4:1],,4,4,,
6/2h[4:1],,4,4h[4:1],,5,5,,
7/3h[4:1],,4,5/6h[4:1],,2-6[8:1],,8bh[8:5],
,,,,5,37,3x/7x,,
{8}
1b-4[8:1],,5,7h[4:1],,8-3[8:1],,6-1[8:1],
,2h[4:1],,1,2,38,38,,
1/6h[4:1],,5,48,,2>5[4:1],2,5<8[4:1],
,8>3[4:1],,4,4,6,4-1[8:1]/8-5[8:1],,
4x/8x,,6,6,7h[4:1],,5,5h[4:1],
,4h[4:1],,2,2,8h[4:1],,1,
7/2<7[8:1],,B4/E4,,6>3[8:1],,E8/B8,,
B2/B6/Ch[4:3],,,,,,,,
{4}
1h[4:7]/7v6-4[8:5],,,,3v2-8[8:5],,,,
6h[2:3]/3<5[8:1],,7>1[8:1],,2h[2:1],,,7<1[4:7],
7h[4:1],,6h[4:1],,5h[4:1],,4h[4:1],,
{8}
5/3h[4:3],5,4,4,5,5,6,6,
4/7h[4:3],4,5,5,4,4,3,3,
(143)26,3,(140)47,6,(131.5)35,4,(121)56,4,(112)3h[28:15],5,(98)6,{16}7xqq8[15080:8601],7x,(145){8}7x,,,,,,(130),,(97)1h[1:1],,,,,,,,
(170)
{8}
A8/B8/E1f,,2,2-5[8:1],,6,6,7/8>3[8:1],
,5,6,7,48,3,12,38,
4xh[4:1],,7,7-4[8:1],,3,3,2/1<6[8:1],
,4,3,15,,7,8,1,
2-5[8:1]/6-1[8:1],,,,7/3<6[8:1],,8,8,
7-3[8:1],,8-4[8:1],,1-5[8:1],,2-6[8:1],,
8b,,17,1/7p3[8:1],,8,1,2q6[8:1],
,1,8,27,{16}4,5,4,5,{8}2b/6b,,
B3/B7/E3f/E7,,8,8-4[8:1],,2,2,5/3>8[8:1],
,7,6,5,24,3,56,47,
8xh[4:1],,3,3-8[8:1],,7,7,5/6<1[8:1],
,2,3,4,56,7,18,2,
3h[4:1]/4-1[8:1],,,,7h[4:1]/8-5[8:1],,,,
4>1[8:1],,7<4[8:1],,2<7[8:1],,5-1[8:1],,
6b,,28,3-8[8:1]/7-4[8:1],,37,,2x/6x,
,45,36,27,1>4[8:1]/8<5[8:1],,1b/8b,,
{8}
2x/6h[4:1],3,4,1x/5h[4:1],2,3,7x/8x,78,
2x/6h[4:1],3,4,1x/5h[4:1],2,3,7x/8x,,
7x/3h[4:1],6,5,8x/4h[4:1],7,6,1x/2x,12,
7x/3h[4:1],6,5,8x/4h[4:1],7,6,1b/2b,,
{16}
7x,6,5,4,1,2,3,4,8,7,6,5,2x-8[8:1],,2,,
6x-4[8:1],,6,,2x-6[8:1],,2,,8x-4[8:1],,8,,3x,,3,,
2x,1,2,1,3,,6,5,6x,5,7,,1,,28,,
7x,5,6,4,5,3,4,,1x/7x,,17,,6b/2b-6[8:1],,,,
{8}
8h[4:1],,5,5>1[4:1],,1<5[4:1],,5,
,1,8,7,56,4,35,2,
8/1h[4:1],,4,4-8[8:1],,4/2>5[8:1],,1b/2b,
,6,7,18,1-5b[8:1]/8-4b[8:1],27,1x/8x,,
{16}
2x/7x,,3,4,3,,8,,7/1x,,6,5,6,,1,,
2/8x,,3,4,2,,8,,7/1x,,6,5,7,,12,,
{8}
3b/8bh[4:1],,5,5-1[8:1],,5/7<4[8:1],,78,
,2,1-5[8:1]/7-5[8:1],8,1bx-3[8:1]/7bx-3[8:1],,1bx/7bx,,
{8}
4h[4:1]/6h[4:1],,,4x/6-1[8:1],,6x/2-5[8:1],,2x/8<5[8:1],
,8x/1>4[8:1],,7/1x,6,5,3x/4x,2,
1b/6bV47[4:1],,4x/6x,2b-6[8:1],,1x/2x,8bw4b[8:1],,
Cf,,,,,,,,
{8}
7,6,(165)5,4,(145)6,5,(105)4,3,(79)5,4,(81)3,{32},2,,,,,,,,,,,{1}3/7qq8[16:27],,,,
