&title=夢現妄想世界
&artist=夢限大みゅーたいぷ
&first=0
&des=
&des_5=はっぴー
&lv_5=13
&inote_5=(195)
{4},,,,
{8},,,,,,,6,
6h[2:1],,,,5,5,,47,,25,,47,4h[4:1]/7h[4:1],,,3,
3h[2:1],,,,4,4,,12,,78,,56,5h[4:1]/6h[4:1],,,7,
7h[2:1],,,,5,5,,46,,24,,28,2h[4:1]/8h[4:1],,,3,
3<6[4:1],,7pp2[2:1],,,,,,,,{16}3,4,3,,6,5,6,,8x/3x>8[8:1],,,,
{8}
6<1[8:1],,4p7[8:1],,5q2[8:1],,3>8[8:1],,
6<1[8:1],,4p7[8:1],,5q2[8:1],,3>8[8:1],,
6<1[8:1],,4p7[8:1],,5q2[8:1],,3>8[8:1],,
6<1[8:1],,4p7[8:1],,5,,6<1[8:1],,
3>8[8:1],,5q2[8:1],,4p7[8:1],,6<1[8:1],,
3>8[8:1],,5q2[8:1],,4,,3,,
8x,,78,16,,12,38,,
3,24,,5,46,46,46,46,
{8}
7/3q6[4:3],3/7h[8:11],,,,,,,
,,,,5xh[4:1],,8V64<8[2:1],,
3,,2,,1V35>1[2:1],,6,,
7h[2:1],,,,1x,,35,,
2/6-2-7-4[4:3],6/2h[8:11],,,,,,,
,,,,4h[4:1],,1V75-3[8:3],,
6-2[8:1],,,,1x,1xw5[8:1],,,
,37,3h[4:1]/7h[4:1],,,56,7-3[8:1]/8-4[8:1],,
{8}
7b/8b,,2h[4:1],,5-1[8:1],,4-2[8:1],,
6-8[8:1],,4,4,,34,1-5[8:1]/2-6[8:1],,
1b/2b,,8<5[4:1],,5-1[4:1],,1>4[4:1],,
4-8[4:1],,1,1,,27,1-5[8:1]/8-4[8:1],,
1b/8b,,6V82[4:1],,2V46[4:1],,6V82[4:1],,
2V46[4:1],,6,,2,,7<4[8:1]/8>3[8:1],,
7x/8x,,1<6[8:1]/2>5[8:1],,1x/2x,,4x/7-5v4-2b[2:1],,
,,,,1b,,,,
{8}
6>4[8:1],,2<8[8:1],,6>4[8:1],,2<8[8:1],,
6>4[8:1],,2,2,6,6,4,3,
3<5[8:1],,7>1[8:1],,3<5[8:1],,7>1[8:1],,
3<5[8:1],,7,7,3,3,46,,
7-5[8:1]/8-4[8:1],,,,1-5[8:1]/2-4[8:1],,,,
7-4[8:1]/8-4[8:1],,,,1-5[8:1]/2-5[8:1],,,,
7-4b[8:1]/8-5b[8:1],1,,,1-4b[8:1]/2-5b[8:1],8,,,
7-3b[8:1]/8-4b[8:1],1,,,12,12,1b/2b,,
4>2[8:1],,8<6[8:1],,4>2[8:1],,8<6[8:1],,
4>2[8:1],,8,8,3,3,4,5,
5<7[8:1],,1>3[8:1],,5<7[8:1],,1>3[8:1],,
5<7[8:1],,1,1,6,6,35,,
{16}
2,4,2,4,2,,,,7,5,7,5,7,,,,
3,6,3,6,3,6,3,6,2,7,2,7,1x-6[8:1]/8x-5[8:1],,,,
1x-4[8:1]/8x-3[8:1],,,,1x-6[8:1]/8x-5[8:1],,,,1-4b[8:1]/8-3b[8:1],,,,1b/8b,,,,
2bx/6bx,,,,,,,,37,,3/7p3[8:1],,,,7b/2h[4:1],,
{8}
,1,1-5-8[4:1]/2-6[8:1],,12,,,7xh[4:1],
,8x,7pp8[4:1]/8-5[8:1],,78,,,1bx,
,28,8/2h[4:1],,4,4-8[8:1],,1>4[8:1]*<6[8:1],
,1,,3x/7x,,1,1>5[4:1],,
5<1[4:1],,1>5[4:1],,5<1[4:1],,1s5[4:1],,
5,,1,,6,6,,7>2[4:1],
,4,4,,4x/5x,4x-8<6b[16:5]/5x-1>3b[16:5],,A4/A5/D5f/E4/E6,
,,,{16}1,8,{8}1,7/2>4p8[8:3],27,6,
,5,5,,2-8[8:1],4,2b,6h[4:1],
,8,8,1,2-8[8:1],4,2b,6h[4:1],
,2,1-5[8:1],,1/7-3[8:1],,4,4,
,5/3>6b[4:1],,6b,,4,4,,
3/5-7[8:1],,4-2[8:1],,6-8[8:1],,3-1[8:1],,
5-8[8:1],,4-1[8:1],,5<8[8:1],,4>1[8:1],,
5-1[8:1],,4,,7,7,1p5b[8:1]*q5b[8:1],28,
,,,,,,,,
{8}
5h[4:1]/7h[4:1],,,5h[4:1]/6h[4:1],,,,7-2[8:1],
,4,,3-6-8[16:3],,5,,,
2h[4:1]/4h[4:1],,,3h[4:1]/4h[4:1],,,,2-7[8:1],
,5,,6-3-1[16:3],,4,,,
5/7h[4:1],,5,6/4h[4:1],,7-2[8:1],,3-6[8:1],
,7-5v4[16:5],,,,,2<7[4:1],,
7pp2[2:1],,,,,,,,
,7b,1b/8b,2b,33b/5b,6b,7b/8bw4b[8:1],,
{8}
A8f,,2x/6x,,1,1-6-2-4[2:1],,6,
,4,,8<4[16:3],,2,2,,
5/1-5[8:1],,7,,8,8-3-7-5[2:1],,3,
,5,,1>5[16:3],,6,6,,
3/7-2[8:1],,4-1[8:1],,5-8[8:1],,3-6[8:1],,
7-3<6-1[2:1],,4,,,,,,
{6}
2-5[8:1],1,8,7-3[8:1],8,1,
2-6[8:1],1,8,7-4[8:1],8,1,
3-8[8:1],4,5,6-1[8:1],5,4,
{16}
3b/8b,,,,6,4,6,4,6,,,,45,,,,
{16}
3,4,3,4,3,,,,2,1,2,1,2,,,,
6,5,6,5,6,,,,7,8,7,8,7,,,,
2h[8:1]/8h[8:1],,,,1h[8:1]/7h[8:1],,,,3,5,3,5,3,,,,
1h[8:1]/7h[8:1],,,,2h[8:1]/8h[8:1],,,,6,4,6,4,6,,,,
3x,5,3,5,3x,5,3,5,2x,6,2,6,2x,6,2,6,
1x,7,1,7,1x,7,1,7,8x,,8x,,8x,,,,
37,,,,2x>4[8:1]/8x<6[8:1],,,,2x-6[8:1]/8x-4[8:1],,,,2x/8x,,,,
3bx/7bx,,,,,,,,,,,,1x/2x,,1x-5-8[8:3]/2x-5-8[8:3],,
{8}
,,,,,,7x/8x,7x-4>1[8:3]/8x-4>1[8:3],
,,,,,,1x/2x,1x-4<7[8:3]/2x-5-3-8[8:3],
,,,,,,7x/8x,7x/8x,
,56,56,,4/7h[4:5],,1-6[8:1],,
1-4[8:1],,1-5[8:1],,1,,4w8b[8:1],,
,,5w1b[8:1],,,,37,7/3>8[8:1],
,6,6,,4x/5x,4x-8<6b[16:5]/5x-1>3b[16:5],,A4/A5/D5f/E4/E6,
,,,{16}1,8,{8}1,2/7<5q1[8:3],27,3,
,4,4,,6-1[8:1],5,4/6b,3h[4:1],
,1,1,8,6-1[8:1],5,4/6b,3h[4:1],
,7,8-4[8:1],,8/2-6[8:1],,5,5,
,4/6<3b[4:1],,3b,,5,5,,
6/4-2[8:1],,5-7[8:1],,3-1[8:1],,6-8[8:1],,
4-1[8:1],,5-8[8:1],,4>1[8:1],,5<8[8:1],,
4-8[8:1],,5-1[8:1],,4,,2,2h[2:1],
,1,,7h[4:1],,8,16,,
24,3,57,6,24,3,7-3[8:1],7,
8-4[8:1],8,1-5[8:1],1,2-6[8:1],2,7,7h[4:1],
,5-2[8:1]*-8[8:1],,,,{16}1,8,7,6,5,4,
3xV14[8:3]*pp4[8:3],,,,,,,,,,,,,,8,,
{8}
1/7-3[8:1],,3,,4,4,8,8-6[8:1],
,2-4[8:1],,1,1,,37,8,
2-6[8:1],,6,,8,8,3,3-1[8:1],
,5-7[8:1],,8,8,,26,1,
7-3[8:1],,3,,4,4,6,6-1[8:1],
,2-5[8:1],,8,8,,7/3q5[2:1],6,
5,,,,7,8p4[8:1],,38,
,2,2-6[8:1],,8-4[8:1],,1b,,
{8}
5,5,4-2[8:1]/6-8[8:1],,46,,1,1,
2-4[8:1]/8-6[8:1],,28,,3x/7x,2,1-5[8:1]/8-4[8:1],27,
1>4b[8:1]/8<5b[8:1],,A1/A8/D1f/E2/E8,
