&title=右に曲ガール
&artist=はるふり
&first=0
&des=
&des_5=鳩ホルダー
&lv_5=12+
&inote_5=(175){4},,,,
{1}5h[1:6]/4-6-3-7-2-8<1[4:23],,,,,,
{4},,,{16}1,8,1,,
{8}
2bx/7bx,,3,3-6[8:1],,8,8,,
7<4[8:1],7,1,1,,34,34,,
28,,7,7-2[8:1],,4,4,,
3>8[8:1],3,5,5,,{16}1,8,1,8,1,,
{8}
2bx/7bx,,6,6-3[8:1],,1,1,,
2>5[8:1],2,8,8,,56,56,,
17,,2,2-5[8:1],,6,6v1[8:1],,
3,,48,48,,26,2b/6b,,
5h[4:1],,4,6h[4:1],,5,E7,,
5h[4:1],,6,4h[4:1],,5,E4,,
5h[4:1],,4,6h[4:1],,5,7h[4:1],,
E8,E7,E6,E5,,46,46,,
4h[4:1],,5,3h[4:1],,4,E3,,
4h[4:1],,3,5h[4:1],,4,E6,,
8,7,56,,1,2,34,,
6,5,4,36,,E5,C,,
1b/8bh[4:1],,1,7h[4:1],,8,/E7,,
1h[4:1],,8,2h[4:1],,1,E3,,
8h[4:1],,1,7h[4:1],,8,6h[4:1],,
E7,E8,E1,E2,,28,28,,
3/1h[4:1],,2,8h[4:1],,1,E8,,
6/8h[4:1],,7,1h[4:1],,8,18,,
3-1[8:1]/4-8[8:1],,,,5-1[8:1]/6-8[8:1],,,,
18,,27,27,,8b,,1>4[4:1],
1,,,8<5[4:1],8,,,2,
2>5[4:1],,5p8[4:1],,8,,,5<8[4:1],
5,,,4>1[4:1],4,,,6,
6<1[4:1],,1p4[4:1],,4,,,2V46[4:1],
2,,,7V53[4:1],7,,,2,
2,,4,5,6,7,18,,
12,,57,,34,25,,78,
,24,,56,56,,7<4[8:1]/8v3[8:1],,
,,7<4[8:1]/8v3[8:1],,,,7<4[8:1]/8v3[8:1],,
,,7<4[8:1]/8v3[8:1],,,,25,,
5,4<8[4:1],3,2,,1,1pp1[4:1],,
7qq7[4:1],,,,,8,7<4[8:1]/8v3[8:1],,
,,7<4[8:1]/8v3[8:1],,,,7<4[8:1]/8v3[8:1],,
,,7<4[8:1]/8v3[8:1],,,,24,,
5,5-7[8:1]*-8[8:1],,5-2[8:1]*-3[8:1],,5q4[8:3]*<4[8:3],,5b,
,,,,34,,5q2[8:1]/6<1[8:1],,
,,5q2[8:1]/6<1[8:1],,,,5q2[8:1]/6<1[8:1],,
,,5q2[8:1]/6<1[8:1],,,,8/3-6[8:1],,
1-7[8:1],,3-8[8:1],,4q8[8:1],,2pp5[2:1],,
,,,,,6,5q2[8:1]/6V82[8:1],,
,,5q2[8:1]/6V82[8:1],,,,5q2[8:1]/6V82[8:1],,
,,5q2[8:1]/6V82[8:1],,,,38,,
16,5,4,38,,17,26,35,
,45,4q2b[4:1]/5<2[4:1],,,,,,
{16}
1b/8b,,,,1,8,1,8,1,8,1,8,1,8,1,8,
2,7,2,7,2,7,2,7,1h[8:1],,8h[8:1],,7h[8:1],,6h[8:1],,
5,,5-1[8:1],,6,,5,,,,4-8[8:1],,3,,4,,
,,7h[8:1],,8h[8:1],,1h[8:1],,2h[8:1],,3h[8:1],,4h[8:1],,5,,
,,7,8,7,8,7,,2,1,2,1,2,,7,5,
6,,2,4,3,,45,,5/4>8[8:1],,,,7,,7V53[8:1],,
,,1,,1,,2,4,3,,7,5,6,,45,,
2b/7b,,2b/7b,,2bpp4[4:1]/7bqq5[4:1],,2b/7b,,,,,,,,,,
{8}
6/3h[1:1],,,,,,,,
4h[1:1],,,,,,,,
5h[1:1],,,,,,,,
6qq7[4:3],,,,,,,,
2h[1:1],,,,,,,,
4h[1:1],,,,,,,,
Chf[8:7],,,,,,,8bx,
,,,,,,1v3[8:1]/7<3[8:1],,
,,1v3[8:1]/7<3[8:1],,,,1v3[8:1]/7<3[8:1],,
,,1v3[8:1]/7<3[8:1],,,,5/2v4[8:1],,
6<1[8:1],,5-2[8:1],,7p3[8:1],,8qq4[2:1],,
,,,,,5,3q1[8:1]/5V71[8:1],,
,,3q1[8:1]/5V71[8:1],,,,3q1[8:1]/5V71[8:1],,
,,3q1[8:1]/5V71[8:1],,,,28,,
37,4,5,26,,17,26,35,
,45,4q2b[4:1]/5<2b[4:1],,,,,,
4b/8b,,2h[8:1]/6h[8:1],,3h[8:1]/8h[8:1],,1h[8:1]/6h[8:1],,
4h[8:1]/7h[8:1],,2h[8:1]/5h[8:1],,57,6,45,3,
1h[8:1]/2h[8:1],,3h[8:1]/4h[8:1],,5h[8:1]/6h[8:1],,7h[8:1]/8h[8:1],,
2h[8:1]/4h[8:1],,5h[8:1]/7h[8:1],,4>1[8:1]/8<5[8:1],,,,
2,2-6[8:1],,1-5[8:1],,8-4[8:1],,7-2[8:1],
,3-6[8:1],,8,8,,17,,
18,1,13,1,15,1,17,1,
18,8,68,8,38,8,18,,
78,6,5,45,3,2,12,8,
18,7,7h[4:1],{24}A1,B1,C,{8}B5,6,6,6,
3,2,14,2,36,7,58,7,
5-1[8:1]/6>3[8:1],,,,D2/E2,D6/E6,D4/E4,D8/E8,
3,3-7[8:1],,8-5[8:1],,4-1[8:1],,6-1[8:1],
,2,2,28,,{16}2,1,3,,7,8,
6,,5,,15,,2,,37,,6,,25,,3,4,
2,,1,,18,,7,,6,,5,,4h[4:1]/5q2b[8:1],,,,
,,,,
