&title=リアライズ
&artist=柊マグネタイト
&first=0.1
&des=ロシェ@ペンギン
&lv_5=13
&inote_5=(150){1},
{16}6bx/1bx,,,,7,8,7,8,7qq5[16:3],,,5<2[4:1],,,1,,
{8},4,4,4,4/2,4,4/1,4,
{16}8/3,,,,2,1,2,1,2pp4[16:3],,,4>8[4:1],,,8,,
{16},,6h[16:3],,,5h[16:3],,,4-1[8:1]*-2[8:1],,,,4,,,,
{16}3bx/8bx,,,,2,1,2,1,2pp4[16:3],,,4>7[4:1],,,8,,
{8},5,5,5,5/7,5,5/8,5,
{16}1/6,,,,7,8,7,8,7qq5[16:3],,,5<1[4:1],,,1,,
{16},,3h[16:3],,,4h[16:3],,,5-3[8:1],,,,5/7,,,,
{8}6h[4:1],,5,4,3h[4:1],,4,5,
{8}6h[4:1],,5,4,3,,5/4,,
{8}3h[4:1],,4,5,6,,7v6[4:1]/3v2[4:1],,
{8},,,,4/5,,4,3,
{16}2h[16:3],,,4h[16:3],,,5^3[8:1],,,,6,,6,,,,
{16}7h[16:3],,,5h[16:3],,,4^6[8:1],,,,3,,3,,8h[4:1]/4h[4:1],,
{8},,7/5,{16}4,,3h[16:3],,,2h[16:3],,,1pp4[8:3],,
{8},8,7,6,5,,7/2,,
{8}6/1,2,3/4,5,5/6,7,5/6,4,
{8}4/3,2,1/5,8,6/7,8,1/5,2,
{8}3/4,5,5/6,4,4/3,2,4/3,5,
{8}5/6,7,8-6[8:1]*-3[8:1],,8,,5,4,
{16}3h[16:3],,,2,,,1/4^1[8:1],,,,8,,8,,7,,
{16}6h[16:3],,,5,,,4/7^4[8:1],,,,3,,2,,1h[4:1]/3h[4:1],,
{8},,2,3,{16}4h[16:3],,,6h[16:3],,,8qq5[8:3],,
{8},1,2,3,4,,7x/2x,,
{4}1/E8,1/E7,1/E6,1/E5,
{4}1/3,1-4[8:1]/2,8x-5[8:1]/1x,8x/1x,
{4}8/E2,8/E3,8/E4,8/E5,
{4}8/6,8p3[4:1]/7p3[4:1],7x/8x,,
{8}1/2,2,B6/2,2,1/3,3,B5/3,3,
{8}8/7,7,B3/7,7,8/6,6,B4/6,6,
{16}3,7,3,7,2,6,2,6,1,5,1,5,8>7V13b[2:1],4,8,4,
{2},Cf,
{16}7b/1b,,2,4,,7,5,,{8}2,1/3^5[8:1],2,8/3,
{16}7,,7,6,,6,8<4[4:1],,{8}1,1,2,3,
{16}8/2,,7,5,,2,4,,{8}7,6^4[8:1]/8,7,6/1,
{16}2,,2,4,,4,3>5b[4:1],,8bxh[4:1],,,,,,,,
{8}2h[4:1],,3-8[8:1],5,7h[4:1],,6,4,
{16}2h[16:3],,,8h[16:3],,,6,,7-3[8:1]/5-3[8:1],,,,7/5,,,,
{8}2h[4:1],,3<2b[8:3],4,5bxh[8:3],,,,
{8}3xh[4:1],,2,1,8-5[8:1]*-4[8:1],,8b,,
{16}2/8,,7,5,,2,4,,{8}7,8/6^4[8:1],7,1/6,
{16}2,,2,3,,3,1>5[4:1],,{8}8,8,7,6,
{16}7/8,,1,6,,6,4,,{8}5/2,8/3,6/1<4[4:1],8/3h[8:3],
{8},,,5/3,5/3,6/4,7/5,8/6,
{16}7/1<4[4:1],,,3,3,,2,,8>5[4:1],,,6,6,,7,,
{8}1h[8:1],5h[8:1],7h[8:1],3-7[8:1],,3<2[8:3],,3b,
{8},,4,4,5,5,6/3,{16}3,4,
{16}2,,6,5,7,,3,4,1w5[8:1],,,,1b,,,,
{1},
{2}6h[1:2],E8/B7,
{2}B5/E5,B3/E3,
{2}3h[1:2],E2/B2,
{2}B4/E5,B6/E7,
{16}8,,,8,,,8/5-3^2[4:1],,,,,,,,,,
{16}1,,,1,,,1/4-6^7[4:1],,,,,,,,,,
{4}8h[2:1],7,6h[2:1],5,
{4}4h[4:1],3,1/2,1/2,
{8}8/3,7,6/5,3,4/3,2/5,4/3,5,
{8}6/5-3[8:1],7,8,1,2/3-5[8:1],1,8,7,
{8}7^4[8:1]/6,8,1,2,2^5[8:1]/3,1,8,7,
{8}6/7,8,1-3[8:1]*-6[8:1],,1,,4,5,
{16}6,,6,8,,8,5,,3^8[8:1],,3h[4:1],,,,,,
{16}2,,2,1,,1,4,,8,,7>4[8:3],,6,,5h[8:3],,
{8},,,6,6/5,{16}3,4,,4,1h[4:1],,
{8},8,7/2,6/3,4-1[8:1]/5-8[8:1],,4x/5x,,
{4}8/C,1/E7,8/E3,1/E5,
{4}8/E4,1-4[8:1]/E6,8x-5[8:1]/1x,8x/1x,
{4}1/C,8/E3,1/E7,8/E5,
{4}6/1,8q5[4:1]/1q5[4:1],8x/1x,,
{8}8-4[8:1],8,8/2,2,2-6[8:1],2,2/1,8,
{8}7-3[8:1],7,7/5,5,5-1[8:1],5,5/8,7,
{16}6,1,6,2,6,3,6,4,7,5,7,5,8<1V75b[2:1],5,8,5,
{2},Cf,
{1},
{4},,7-4[8:1]/2-5[8:1],7x/2x,
{16}7bx/1bx,,2,4,,7,5,,{8}8/3,6/1-5[8:1],8/3,6/1,
{16}7,,7,5,,5,6<4b[4:1],,1xbh[2:1],,,,,,,,
{8}7h[4:1],,6-1[8:1],4,2h[4:1],,3-8[8:1],5,
{16}7h[16:3],,,1h[16:3],,,4,,{4}4-6[8:1]/2-6[8:1],4/2,
{8}7h[4:1],,6>7b[8:3],5,4bxh[2:1],,,,
{8}6xh[4:1],,7,8,1-5[8:1]*-4[8:1],,1b,,
{16}8/2,,7,5,,2,4,,{8}1/6,3/8-4[8:1],1/6,3/8,
{16}2,,2,3,,3,1>5[4:1],,8,,8,,7,,6,,
{16}1/2,,8,3,,3,5,,{8}7/4,6/1,8>5[4:1]/3,6h[8:3]/1,
{8},,,6/4,6/4,5/3,4/2,3/1,
{16}2/8>5[4:1],,,6,6,,7,,1<4[4:1],,,3,3,,2,,
{8}8h[8:1],4h[8:1],2h[8:1],6-2[8:1],,6>7[8:3],,6b,
{8},,5,5,4,4,3/6,{16}6,5,
{16}7,,3^6[8:1],4,2,,3^8[8:1],,,,3<2q4b[4:5],,,,3b/Cf,,
{1},
{8},,7/5,6,2/4,3,7/5,8,
{16}1/3,,,,2,1,2,1,2pp4[16:3],,,4>8[4:1],,,8,,
{16},,6h[16:3],,,5h[16:3],,,4-1[8:1]*-2[8:1],,,,4,,,,
{16}3bx/8bx,,,,2,1,2,1,2pp4[16:3],,,4>7[4:1],,,8,,
{8},5,5,5,5/7,5,5/8,5,
{16}1,6,1,6,2,5,2,5,3,4,1,7,5,6,1h[4:1],,
{8},4,4/1-5[8:1],,6-2[8:1],7,8x,,
