&title=バベル
&artist=いよわ feat. 重音テト
&first=0
&des=重音テトコラボちほー des_5=サファ太
&lv_5=13+
&inote_5=(225)
{1}
,,
{8}
5,5,5,,3,4,5,,
{2}
4h[4:1]/6h[8:1],3h[8:1]/5h[4:1],
{8}
5,5,5,,3,4,5,,
{2}
5h[8:1]/7h[4:1],2h[4:1]/4h[8:1],
{8}
5,5,5,,3,4,5,,
{2}
4h[8:1]/6h[4:1],3h[4:1]/5h[8:1],
{8}
5,5,5,,3,4,5,,5,4,5,36,,E4/E6/B4/B5,,,
{4}
2b-5[8:1],28,
{8}
6,6,5,7,
{4}
2>4[8:1],5,6<8[8:1],4,2-5[8:1],12,
{8}
6,6,5,7,
{2}
1-3[8:1]*-5[8:1],8-4[8:1]*-6[8:1],
{8}
3bx/5bx,,4h[4:1]/6,,5,4,6,,
{4}
5/7-3[8:1],4-1<8-5[2:1],5x,6x,7xh[4:1],5,3/4-8[8:1],2,
{2}
1>4b[8:1]*<6b[8:1],2bx/8bx,
{4}
7b-4[8:1],17,
{8}
3,3,4,2,
{4}
6<8[8:1],4,2>4[8:1],8,6-1[8:1],46,
{8}
3,3,4,2,
{2}
8-4[8:1]*<6[8:1],1>3[8:1]*-5[8:1],
{8}
2bx/6bx,,3/5h[4:1],,4,5,3,,
{4}
2-6[8:1]/4,5-7>1[4:1],4x,3x,2h[4:1],4,
{8}
6,6,
{4}
7-4[8:1],3-8[8:1],8q4[8:1],6b,,
35,35,46,4-8[8:1]/6,5,5,6/8h[4:1],6,5/8-4[8:1],5,6,46,56,78,12,3/4-1[8:1],
2,2,13,1p5[8:1]/3,4,3,24,3/5-8-4[2:1],4,4,3,2-6[8:1]/5,4-8[8:1],1,17,,
{8}
2b/6b,,3,3,
{4}
35,4/6-4[8:1],2v5[8:1],8,8,46,
{8}
7h[4:1],,5,5,
{4}
56,3/4<6[8:1],2-4[8:1],8,8,57,
{8}
35,,2,2,
{4}
24,3<6[8:1]/5,7,8,8qq8[4:1],4,4,
{8}
3,3,3-8[8:1],,6,,17,17,17,,
{4}
3b/5b,,6,
{8}
6<2[2:3],,,,,4h[8:5],,,,,
{4}
,,3,
{8}
3>7[2:3],,,,,5h[8:5],,,,,
{4}
,,6,
{8}
6h[1:2],,,,,E6/B6,,,,,
{4}
E4/B3,,2,
{8}
2h[4:5],,,,,Ch[8:9],,,,,
{4}
,,1x,
{8}
1x>4>1[2:3],,,,,E5/B4/B5,,,,,
{4}
,,7,
{8}
7<4<7[2:3],,,,,E4/B3/B4,,,,,
{4}
,,2,
{8}
2>5>2[2:3],,,,,E6/B5/B6,,,,,
{4}
,,1h[4:3],,
{8}
,2,2,,12,,34,,
{16}
4,5,4,5,4,,,,
{4}
2b>5[8:1]/8,28,
{8}
7,6,4,3,
{4}
2-4[8:1],8,6-8[8:1],4,3v8[8:1],38,
{8}
7,6,4,3,
{2}
1-4[8:1]/2v4[8:1],7v5[8:1]/8-5[8:1],
{8}
1b/8b,,7,7,
{4}
5-1[8:1],6>3[8:1],2h[4:1],8,
{8}
27,36,4-1[8:1]*-7[8:1]/5,,,,2x/6x,,3,4,5,6,
{4}
7-3[8:1]/8,1>4[8:1]*<6[8:1],1bx,,6v1[8:1],56,
{8}
4,3,8,7,
{4}
6-4[8:1],1,3-1[8:1],5,6v1[8:1],16,
{8}
2,3,5,6,
{2}
7v4[8:1]/8-5[8:1],1-4[8:1]/2v5[8:1],
{8}
1b/8b,,2,2,
{4}
4-8[8:1],3<6[8:1],7-3[8:1],1,
{8}
2,2,
{4}
34,5/6<1[8:1],2/6,
{8}
3,3,
{4}
7-3[8:1],78,1-4[8:1]*<7[8:1],1bx,,
{8}
4/7h[4:1],,5,5h[8:5],
{16}
E7,B6,
{8}
,,,7h[4:3],,
{16}
B5,E6,,E7,D7,,,,
{8}
1x,,2,2,4,4,3,4,5,6,
{16}
7h[4:1]/B4,E5,
{8}
,,,
{16}
1x,,,2x/8x,,,3x/7x,,6h[4:3]/B4,E5,,,
{8}
,E7/B6,,,
{4}
8>4[4:1],7,7,
{16}
8x,,,1x/7x,,,2x/6x,,
{8}
2x/6x,,45,,28,2/8-4[8:1],,1h[8:5],,,,,
{16}
4,,,35,,,3x/5x,,
{16}
6bx,5x,,,7,8,,,2,1,,,3,4,,,
{8}
45,6,7h[8:1],5,4h[8:1],6,57,,
{16}
7b,8,,,2,1,,,3,4,,,6,5,,,
{8}
45,3,2h[8:1],4,5h[8:1],3,24,,
{4}
3h[16:3]/5h[8:1],3h[16:3]/5h[8:1],3h[16:3]/5h[8:1],3h[16:3]/5h[8:1],
4h[8:1]/6h[16:3],4h[8:1]/6h[16:3],4h[8:1]/6h[16:3],4h[8:1]/6h[16:3],
{8}
3x/7x,,4,3,2h[4:1],,3,4,25,2h[16:1]/5h[16:1],,1b/6b,1b/6b,,
{4}
7<2>7[1:4],
{1}
Cf,,1h[8:7],,Ch[8:7],
{2}
E7,E1,E3/8h[8:7],,Ch[1:1],,6<3V17[4:15],,,,4,4,4,4,
{8}
5,,6,,7,7V14-6[8:7],,4h[8:7],
{1}
,
{4}
5/7h[4:3],,
{8}
,6,6,,67,,56,,
{16}
5,4,5,4,6,,,,
{4}
2bv5[8:1]/8b,12,
{8}
6,7,1,2,
{4}
3-1[8:1],5,3>8[8:1],6,7v4[8:1],78,
{8}
3,2,8,7,
{2}
5v8[8:1]/6v1[8:1],3v8[8:1]/4v1[8:1],
{4}
2b/6b,4/6h[4:1],8-4[8:1],7>2[8:1],3<6[8:1],6,
{8}
7,7,
{2}
1<8-5[8:1]/8>1-4[8:1],
{8}
3x/6x,,2,1,8,7,
{4}
5/6-2[8:1],4>1[8:1]*<7[8:1],4bx,,4/7bv4[8:1],17,
{8}
3,2,8,7,
{4}
6<8[8:1],4,6<1[8:1],4,2v5[8:1],12,
{8}
6,7,1,2,
{2}
3v1[8:1]/4v7[8:1],5v2[8:1]/6v8[8:1],
{8}
34,1b/5b,,,
{4}
5-1[8:1]/7,6>3[8:1],2<7[8:1],7,
{8}
6,6,
{4}
5/7-5[8:1],3>8[8:1],8,
{8}
5,6,
{4}
7-3[8:1],1-5[8:1]/7,1/8w4[8:1],8bx,,
1-5-3[4:1],8,1-5-7[4:1],3,1-5-3[4:1],8,
{8}
7,7,37,,
{4}
8-4-6[4:1],1,8-4-2[4:1],6,8-4-6[4:1],1,
{8}
2,2,26,,
{4}
4-8-2[4:1],5,4-8-6[4:1],3,5-1-3[4:1],7,5-1-7[4:1],3,
6-2-4[4:1],8,7h[4:1],5h[4:1],3h[4:1],1h[4:1],7,7<2V46[4:7]/8,
{4}
B4f/C,,,,1h[2:1],,,2>7V53[4:7],,,,,8h[2:1],,,
6<3V17[4:7],,,,,4h[2:1],,,3>2-8<7[1:1],,,,,6,4-1[8:1]/5-8[8:1],E4/E6/B4/B5,,,
