&title=エイプリルスター
&artist=OSTER project
&first=0.06
&des=Jack
&inote_5=(185){1},
{2}7h[2:1],E6,6h[2:1],E5,5h[2:1],E4,4h[2:1],E3,2h[2:1],E4,3h[2:1],E5,4h[2:1],E6,6p4[4:5]/5,,,{8},3,3/4,,
{8}2-5[8:1],,6,,7,7,6/4,,3,3,5,4,6,6,7/5,,2h[4:1],,4,,6,5,7/4,,8,1,7/2,,3,4,2/5,,7-4[8:1],,3,,2,2,3/5,,6,6,4,5,3,3,2/4,,7h[4:1],,5,,3,4,2/5h[8:3],,,6,7,8,1,2,3,4,
{8}5h[2:3]/6,,7,,6,6,,4,,6,6,,7,7,6/4,,4h[2:3]/3,,2,,3,3,,5,,3,3,,2^7[8:1],,5,,6h[4:1],,5,,3,3/4,,2/5,,6,6/5,,7,5,6/4qq5[8:5],,7,,,,6,6,,4,4,5,,4-8[8:1]/3,,1,1,,
{8}2,2h[4:1],,4h[4:1],,5h[4:1],,7,7^2[8:1],,4,,3,3,4,2,8^5[8:1],,4,,3^8[8:1],,7,,6^3[8:1],,2,,1-5[8:1],,8,,6x/4x,6x-1[8:1]/4x,,2-5[8:1],,8-4[8:1],,1,,1/2,8b/3b,,,4,4,,
{8}6,6,6h[4:1]/4h[4:1],,,6<4[2:1]/4,,5,,,,,2h[4:1],,4,,3,3,3/5,,6/4,,7,7h[4:1],,5,,7/6,,5/4,,2-5[8:1]/3,,7,7,,8,8^5[4:1],,5^2[4:1],,2^7[4:1],,7,,4,4,,2,2,5,{16}3,4,3,,{8}5,6/4,,7,7,4,{16}6,5,6,,{8}4,3/5,,3,3,8,{16}2,1,2,,{8}8,7/1,,6,6,1,{16}7,8,7,,{8}1,2/8,,6h[4:1],,5,7-1[8:1]/4,,3-5[8:1],,7-3[8:1],,2,2,1^4[8:1],,8^5[8:1],,4xh[8:7],,3,2,1,8,7,6,5xh[8:3]/3xh[8:3],,,,5x/3x-8[8:1],,6x-1[8:1],,2b,,2,3/5,6,7/8,1,8/2,3,6h[4:1]/4^1[8:1],,,,8^5[8:1]/2h[4:1],,,,
{8}3-8[8:1],5,7-4[8:1],,7/1,,3-8[8:1],5,7-4[8:1],,7/1,,6x/2x,6x/2xqq5[8:3],,5b,,,8,,7/1,6/2,3-5[8:1]/5,,7,7-3[8:1],,1,,1/2,8/3,,6-1[8:1],4,2-5[8:1],,8/2,,6-1[8:1],4,2,2,3,5,6x/2x,6xqq7[8:3]/2xqq3[8:3],,,,,,,8/4,5,7,1,3,8^5[8:1]/4^1[8:1],,,,7x/3x,7x/3x,,{16}1h[16:3],,,2h[16:3],,,3,,7h[16:3],,,6h[16:3],,,5,,3h[16:3],,,4h[16:3],,,5,,{8}5,6/4,7/3,8b/2b,,,,7/3,6,4,2,1q5[8:1]/5q1[8:1],,1x/5x,,8^5[8:1]/4^1[8:1],,8x/4x,,,6/2h[4:1],,4,3,6,5,8/4,,7h[4:1]/3,,5,6,3,4,1-5[8:1]/5,,7^2[8:1],7,3^6[8:1],3,8,8,7/1,6b/2b,6b/2b,6b/2b,,5b-1b[8:1],,Cf,,,
{8}8,8,1,8/2,,7/3,,6h[4:1]/4h[4:1],,,6/4,,3,5,6/2,,7h[4:1],,5,,1,1h[4:1],,3h[4:1],,5h[4:1],,7h[4:1],,8,7,6,5/3,4,6,8,2,6^1[4:1]/4,,1^4[4:1],,4^7[4:1],,7^2[4:1],,2^5[4:1],,8h[2:1],,,,,7/1,7-5[8:1]/1,,1-3[8:1],,8-4[8:1],,3,,5/3,6/2,,8/1,7,6,5,4,3q5[1:1],2,1,,,,,,,,,,6,6/5,,{16}3,4,2,,6,5,7,,
{1}8xh[8:11]/1xh[8:11],{8},,,,8/1,7/2,6/3,{16}4x,4x,{4}5x-2[8:1],5bx-8[8:1],5bx^2[8:1],5bx^8[8:1],5bx,{8}1/2,1-6[8:1]/2-5[8:1],,1b/2b,,,7-4[8:1],1,3-8[8:1],,5/3,,7-4[8:1],1,2,3,5,6,7,8qq5[2:1]/4qq1[2:1],,,,,,,7/3,6,5,4,6/2,6-1[8:1]/2-5[8:1],,6/2,,7x/3x,7x/3x,,{16}8h[16:3],,,7h[16:3],,,6,,2h[16:3],,,3h[16:3],,,4,,6h[16:3],,,5h[16:3],,,4-8[8:1],,{8},1,1,,{16}4h[16:3],,,2h[16:3],,,1,,5h[16:3],,,7h[16:3],,,8,,{8}6b/2b,,,1-5[8:1],1,8,,,7p3[8:1],7,8x,,2,1,8x/3,,2q6[8:1],2,1x,,7,8,1x/6^3[8:1],,2,,5x/4x,6,4x/3,2,6/5x,7,4x/2,1,5x/7,8,4x/3,1bx,1bx,,{16}3,5,3,5,3,5,3,5,3,5,3,5,3,5,3,5,3,5,3,5,3,5,3,5,6x/2x,,6x^3[8:1]/2x^7[8:1],,{8},,,,5/4,,8-6[8:1]/1-3[8:1],,,,{16}5x/4x,,,3x/2x,,,8x/1x,,7x/6x,,,5x/4x,,,3x/2x,,{8}1b/8b-4[8:1],,2-5[8:1],,6-1[8:1],,3-8[8:1],,7-4[8:1],,1-5[8:1],,5,,7/3,,1/2,1/2,8/3,,7/8,7/8,6/1,,5/4,6/3,7/2,8^5[8:1]/1^4[8:1],,8b/1b,,,{16}4h[16:3],,,3h[16:3],,,2,,6h[16:3],,,7h[16:3],,,8,,2h[16:3],,,1h[16:3],,,8>6[8:3],,{8},6,7,8b,,,,1/2,3,5,7,8-6[8:1]/1-5[8:1],,8x/1x,,4-8[8:1]/3-1[8:1],,4x/3x,,,6h[4:1]/2,,5,,7,8,6/1,,3h[4:1]/7,,4,,2,1,3/8z4[4:1],,1x,,,,6/2,,4/3,,6/5,7h[4:1]/4,,8,,1/2,1/2-6[8:1],,8,,7/5,7,6/4,6,5/3^8[8:1],5,4,,2/4,2,3/5,3,4/6^1[8:1],4,5,,7/5,7,6/4,6,5/3,5,4/2,1h[4:1],,8,,6/5,8-4b[8:1]/4,,8/1,,5/3,5,6/4,6,7/5-1b[8:1],7,8,,4/6,4,3/5,3,2/4-8b[8:1],2,1,,1/5,2/6,3/7,4/8,5x/1xw5b[8:1],,Cf,,,7-3[8:1],,
