&title=ゆけむり魂温泉 II
&artist=魂音泉
&first=-0.04
&des=7.3Hz+Jack
&lv_5=13+
&inote_5=(140){8},,,
{8}2/6h[8:3],,,4h[8:3],,,5,4,
{8}3h[8:3],,,4h[8:3],,,5,,
{8}7/3h[8:3],,,5h[8:3],,,4,5,
{8}6h[16:11],,,5h[16:5],,,,34,
{8}4/3h[8:3],,,5h[8:3],,,4,5,
{8}4/6h[8:3],,,4h[8:3],,,5,4,
{8}3h[4:1]/5h[4:1],,,,46,,7-3[8:1],,
{8}1b,,,,,,2,2,
{16}34,,6,5,7,,34,,5,,24,,1x,,3,4,
{16}3,,1x,,6,5,6,5,8,,7/1x,,2,,3,4,
{16}3,,5,,46,,37,,2,8,2,8,1x,,1x,,
{16}7,5,7,5,6,4,6,4,5,3,4,,1bx/8b,,,,
{16}7,5,6,5,6,,2,1,2,1,2,,78,,56,,
{16}78,,1,5,2,4,3,7,5,6,1,,34,,2b/8b,,
{16}7<4[8:1],,7,,3-6[8:1],,3,,8,,8x,,6,5,6,,
{16}2<7[8:1],,2,,6-3[8:1],,6,,1,,1x,,3,4,3,,
{16}5-8[8:1],,1,,1x,,3,,7,,5/6x,,3,4,3,4,
{16}2x,,35,,6/4x,,78,,2x/6x,,,,3,4,3,4,
{16}2x,,6,5,7x,,3,4,1,,28,,7,5,6,5,
{16},46,,3,4,,12,,3x/7x,,,,6,5,6,5,
{16}7x,,3h[16:1],4x,,6h[16:1],5x,,2h[16:1],4x,,7h[16:1],5x,,18,,
{16}2x,,18,,7x,5,6,4,5,3,4,,1b/7b,,2b/8b,,
{16}3,5,3,5,4,6,4,6,5,7,5,7,6,,1b,,
{16}2h[8:1]/8h[8:1],,,4h[8:1]/5h[8:1],,,2b/6b,,,,7,7,4-8[8:1],5,3,,
{16}1b>7[8:5],,,,,,,,C,,,,,,,,
{16}8-6-4-2[8:5],,,1x,,,1x,,C,,,,,,,,
{16}1-3-5-7[8:5],,,,,,,,C,,,,,,,,
{16}8<2[8:5],,,1x,,,1x,,C,,,,1-5[8:1],,,,
{4}8bh[4:3],,,1-5[8:1],
{8}4bh[4:3],,,,,,8,1b/5b,
{16}2h[16:3],,,3h[16:3],,,4,,8h[16:3],,,7h[16:3],,,6,,
{16}15,,3,4,,6,5,,7/5-1[8:1],,,,6,,6,,
{16}7b/8b<5[8:1],,1,,28,,3,,24,,7,8,7,,16,,
{8}4/3h[4:1],8x,5h[4:1],8x,3h[4:1],8x,6h[8:1],8x,
{16}1/5<8[8:1],,4,,35,,2,,13,,6,5,6,,18,,
{8}6/3h[4:1],8x,5h[4:1],8x,3h[4:1],8x,4h[8:1],8x,
{16}16,,7,8,7,,16,,38,,2,1,2,,38,,
{4}5x>2b[8:1]/7x<5b[8:1],57,5x/1xs5b[8:1],18,
{16}37,,6,,15,,2,,38,,6,5,6p4>5[4:3],,1,,
{8}Cf,,,,,,2,3,
{16}6/4V26[2:1],,,,,,,,5h[2:1],,,,,,,,
{16}7,,,7,6-3[8:1],,6,,4>1[8:1],,,,7,,,,
{16}3/5V73[2:1],,,,,,,,4h[2:1],,,,,,,,
{16}2,,,2,3-6[8:1],,3,,5<8[8:1],,,,2,,2,,
{4}3/7v6-4[8:3],,3h[4:1],5h[4:1],
{16}7,,,7,6-3[8:1],,6,,4>1[8:1],,,,7,,,,
{8}2-4[8:1]/6-4[8:1],,,,26,3,5,46,
{16}37,,2,4,3,,7,5,6,,4,5,36,,,,
{8}5-1[8:1],5-7[8:1],,,4-8[8:1],4-2[8:1],,,
{4}5bh[2:1],3b,7b-3[8:1],1b,
{16}28,,2,4,3,5,4,6,5,7,5,6,3,4,2,,
{16}17,17,,3,4,3,5,1xw5b[8:1],,2x/8x,2x/8x,,Cf,,,,
{16}3-6[8:1]/7-4[8:1],,28,,3b/7b,,,,18,,7,8,7,,16,,
{8}3/4h[8:1],1x,5/6h[8:1],1x,3/4h[8:1],1x,5/6h[8:1],1x,
{16}8/4>1[8:1],,5,,46,,7,,68,,3,4,3,,18,,
{8}6/5h[8:1],8x,4/3h[8:1],8x,6/5h[8:1],8x,4/3h[8:1],8x,
{16}16,,7,8,7,,16,,38,,2,1,2,,38,,
{32}1b/6x,5x,4x,,,,,,1b/6x,5x,4x,,,,,,1b-4[8:1]*-6[8:1]/6x,5x,4x,,,,,,1b,,,,,,,,
{16}28,,7,,16,,2,,35,,7,8,7<3[4:1],,1,,
{8}3>7[4:1],,7<4[16:3],,,,18,27,
{16}4-1[8:1]/5-8[8:1],,,,4b/5b,,,,36,,7,8,7,,26,,
{8}5/7h[8:1],1x,5/4h[8:1],1x,5/6h[8:1],1x,5/3h[8:1],1x,
{16}8/4>1[8:1],,5,,46,,7,,68,,3,4,3q5[4:1],,7,,
{8}7,,6h[4:1],8x,5h[4:1],1x,4h[4:1],2x,
{16}A7/B7f/E7,,A3/B3f/E4,,A5/B5f/E6,,A1/B1f/E2,,7x/8x,,6,5,6,,17,,
{32}8b/3x,4x,5x,,,,,,8b/3x,4x,5x,,,,,,8b-3[8:1]*-5[8:1]/3x,4x,5x,,,,,,8b,,,,,,,,
{16}16,,2,,38,,47,,1,6,1,4,1<2[2:1],,2,,
{8}Cf,,,,,,1,7,
{8}35,1,46,8,37,26,5/1<2[2:1],2,
{4}Cf,,1-5[8:1],1/8h[8:7],
{8}A7,A6,A5,A4,A3,A2,1s5s1[1:1]/7<2[1:1],,
{1},
{8},,,,,6/5-1b[8:1],8b,8b,
{8}7<4[8:1],7,3-7[8:1],3,8p4[8:1],8,3-7[8:1],3,
{8}1-4[8:1],1,3,3,5-1[8:1]/6-1[8:1],,5b/6b,,
{8}8/2>5[8:1],2,6-2[8:1],6,1q5[8:1],1,6-2[8:1],6,
{8}8-5[8:1],8,6,6,3-8[8:1]/4-8[8:1],,3b/4b,,
{16}17,,2,,38,,7,,56,,3,4,3,,6,,
{4}4x/8xz4b[8:1],1b/8b,2x>4b[8:1]/4x<7b[8:1],2b/4b,
{16}38,,6,5,,3,4h[8:3],,7,,8,,1,,2,,
{16}38,,6,5,,3,4,,4>1[8:1]/5<8[8:1],,,,4b/5b,,,,
{16}2,4,3,4,1x,,1x,,6,5,7,4,5,3,6,2,
{16}4,3,5,2,6-4[8:1],,7,,6b,,7-3[8:1],,8,,7b,,
{16}2,,12,,7,5,6,5,8x,,8x,,3,4,2,7,
{16}5,6,4,7,3-5[8:1],,2,,3b,,2-6[8:1],,1,,2b,,
{16}7,,7,5,6,,45,,3,4,2,2,6,5,7,7,
{4}1xs5b[8:1],1b/8b,5x>2b[8:1]/7x<5b[8:1],5b/7b,
{16}78,,56,,34,,12,,7,8,7,8,6,,34,,
{8}28,56,17,34,26,1-4[8:1]/5-8[8:1],48,1b/5b,
