&title=てらてら
&artist=和田たけあき
&first=0
&des=MAS conv. by miriiaa
&wholebpm=190
&shortid=
&genre=niconicoボーカロイド
&cabinet=DX
&version=maimai DX PRiSM
&des_1=
&des_2=
&des_3=
&des_4=
&des_5=Luxizhel
&des_6=
&lv_5=13
&inote_5=(190){1},,
{4}2h[4:1]/6,{8}4,4,,,{4}3/5,3/7h[4:1],{8}5,5,,,{4}4/6,2h[4:1]/6,{8}4,4,,,{4}3/5,3/7h[4:1],{8}5,5,,,{4}4/6,{2}2-4[8:1]/4,7-5[8:1],{4}4,4/2,5,5/7,{2}4q5[2:1]/8h[4:1],7h[4:1],{8}6,6,7/5,7/5,{4}7/5,8bx/3bx,1/2-5[8:1],7,{8}6,{4}6/4,3h[4:1]/5,{16}E1,E8,{8}E7,2,2,8,{4}1/7,8/7-4[8:1],2,{8}3,{4}3/5,6h[4:1]/4,{16}E1,E2,{8}E3,7,7,1,{4}8/2,4/3-8[8:1],8,{8}6,{4}5/7,3h[4:1]/5,{16}E1,E8,{8}E7,2,2,8,{4}1/7,5/6-1[8:1],3,{8}2,{4}2/8,7-5[8:1]/5-1[8:1],7bx/5bx,{8}2x/6x,{2}2bx/6bx,{4}3/5,{8}2,2,{4}4h[4:1],3,2,{8}4,4,{4}3,4/5,4/6,{8}7,7,{4}5h[4:1],6,{8}7,7,{4}8,{8}2,2,{4}1-6-2-5[2:1],{2},{4}3,3/4,2,{8}8,8,{4}1,7/8,6-4[8:1],4x,2-4[8:1],4x,6>3[4:1],3x<6[4:1],{2},{4}5h[4:1]/7,6,{8}2,2,4,{4}3,2/4,1/3,{8}2,2,8,{4}1,7/8,6/5,{8}4,{4}3/5,1/2,{8}3/8,{4}3/8,4,7<5[4:1],5>3[4:1],3>1[4:1],1<6[4:1],6>3[4:1],3,{8}1,{4}1,{8}2/8,{4},3-8[8:1],7-4[8:1],2-7[8:1],6-3[8:1],{8}8,{4}1,{8}3/7,{4}3/7,6h[4:7],B6,B8,B2,B4,B6,B8,B2,3h[4:7],E3,E1,E7,E5,E3,E1,E7,{8}5x/6x,6,6,6,6x/8x,6,6,6,6x/3x,3,3,3,3x/1x,3,{4}2b/7b,8/1,{8}6,{4}5/7,{8}3,{4}4/2,{8}7,7,5,5,{4}4,3/6,{8}4/5,4/5,4/5,3b/6b,{4},
5-8[8:1]*-1[8:1],5x,{8}2,2,8,4,4,{4}1-5[8:1],1x/5x,{8}3b/7b,{4}3b/7b,3/4-1[8:1]*-8[8:1],4x,{8}7,7,1,5,5,{4}8-4[8:1],8x/4x,{8}2b/6b,{4}2b/6b,4/5,{8}7,7,8-2[8:1],8,6-4[8:1],6,3-7[8:1],{4}3,6h[4:1],{8}8,{4}8,6/4,5<8[8:1],{8}3,4,{4}4>1[8:1],{8}6,5,{4}5<8[8:1],{8}3,2,2h[2:1],1x,1x,1x,{4}1x-5[8:1],1x/3x,{8}2,6,5,{4}1/4-8[8:1],4x/8x,{8}2b/6b,{4}2b/6b,3/4<7[8:1],2x/4x,{8}3,4,8,4,5,{4}1w5[8:1],1x,{8}3b/7b,{2}3bh[4:1]/7bh[4:1],{4}1-6[8:1]/2-5[8:1],1/2,{8}4,4,5,{4}3p7[4:1],7p3[4:1],{8}5,{4}5,C,{8}7,7,1,2,8,8,2,3,1,1,1/5,1/5,{4}1x/5x,3/7-4[8:1],{2},
{8}4/5,{16}3,4,{8}3,{16}6,5,{8}6,{16}3,4,{8}3,6,6,{4}4/5,2/8,{8}3,3,{4}4h[4:1],{8}1,2,3,6,{4}7/5,8-5[8:1]/1-4[8:1],8/1,{8},{4}3/6,4/5,2-4[8:1],1-5[8:1],2-4[8:1],1-5[8:1],2V46[4:1],6V82[4:1],2,6,7,3>1[8:1],3,{8}5,{4}5<8[8:1],5>2[8:1],{8}5,{4},2/8,7-5[8:1],8-4[8:1],7-5[8:1],8-4[8:1],{8}7,{4}7h[4:1],3,2/8,{8}4/6,{4}4/6,3>1[8:1],3,{8}5,{4}5-3[8:1],5/7-5[8:1],{8}1,{4}1,4/6,2-4[8:1],8-6[8:1],1-5[8:1],7-3[8:1],{1}1>1[8:5]*<1[8:5],{4},2-7[8:1],2x/5x,{8}6,{4}4/5,{8}3,3,{4}2/4,{8}8/1,{4}8/1,{8}4x/6x,6,6,6,8x/6x,6,6,6,6x/2x,2,2,2,4x/2x,2,{4}1b/5b,2-6[8:1],{8}8,{4}8-4[8:1],{8}1,{4}1,{8}3,3,1,1,{4}8,2/7,{8}4/5,4/5,4/5,{4}6b/3bh[8:3],{16}E6,B5,{2}B4,{4},
2/5,{8}B2,B5,{4},3/4,2/5,{8}B2,B5,{4},3/4,7/4,{8}B7,B4,{4},5/6,7/4,{8}B7,B4,{4},5/6,7<5[4:1],5v4[4:1],4>2[4:1],2,{8}1,1,{4}2/8,{8}7,7,{4}8/6,5<8[8:1],{8}3,3,{4}4>1[8:1],{8}6,7,8,8,1/7,1h[4:1]/7h[4:1],{4},E1/E8f,3/4,1bV35[4:1]/6b,{8}6,7,8,{4}1x-6[8:1]/5x-2[8:1],1x/5x,{8}3b/7b,{4}3b/7b,1/2,3/5,8V64[4:1]/4,{8}3,2,1,{4}8xv3[8:1]/4x-7[8:1],8x/4x,{8}2b/6b,{4}2b/6b,7/8,2-6[8:1]/6-2[8:1],2/6,{8}8,8,4,{4}4V68[4:1],8V24[4:1],{8}4,{4}4,8,{8}3,3,5,6,4,4,7,8,5,5,5/1,5/1,{4}5x-2[8:1]b/1x-6[8:1]b,5b/1b,{2}3b/7b,{4}1/2-5[8:1],7,{8}6,{4}7/5,3h[4:1]/5,{16}1x,8x,{8}7x,3,2,1,{4}7/8,5/6-1[8:1],1,{8}3,{4}2/4,6h[4:1]/4,{16}7x,8x,{8}1x,6,7,8,{4}1/2,{4}7-4[8:1]/8,2,{8}3,{4}2/4,6h[4:1]/4,{16}8x,1x,{8}2x,6,7,8,{4}1/2,5/6-1[8:1],3,{8}2,{4}2/8,8-4[8:1]/1-5[8:1],8bx/1bx,{8}2b/7b,{2}2b/7b,{1},,
E
