&title=ouroboros -twin stroke of the end-
&artist=Cranky VS MASAKI
&first=0.153
&des=
&des_4=Luxizhel
&des_5=サファ太
&lv_4=12
&lv_5=14
&inote_4=(188)
{1}
,
{4}
6h[2:1],,5h[2:1],,4h[2:1],,3h[2:1],,4,4,5,5,6,6,5/7,5/7h[2:1],,5,5/7,4/6,3/5,2/4,2>4[4:1]/4,,,5/6,7h[4:1],6h[4:1],5h[4:1],2h[4:1],3h[4:1],4h[4:1],5,
{8}
5,5,3,3,7,7,
{16}
1x,8x,1x,8x,1x,8x,1x,8x,
{8}
1x-5[8:1],,7b,,6,,5/7,,
{16}
7h[16:3],,,6h[16:3],,,5,,5-7[8:1],,,,8,,8v5[8:1],,,,,,,,,,7,,,,5/6,,,,6h[16:3],,,5h[16:3],,,7,,7-5[8:1],,,,4,,4qq2[16:3]*pp6[16:3],,,,,,,,,,3x,,,,2/4,,,,2h[16:3],,,3h[16:3],,,4,,4-2[8:1],,,,1,,1v4[8:1],,,,,,,,,,2,,,,3/4,,,,3h[16:3],,,4h[16:3],,,2,,2>4[8:1],,,,5,,5qq4[16:3]*pp6[16:3],,,,,,,,,,7x,,,,5/8,,,,8h[16:3],,,6h[16:3],,,5,,5<8[8:1],,,,2,,2>5[8:1],,,,,,,,,,7,,,,5/8,,,,7h[16:3],,,5h[16:3],,,
{8}
6,6-4[8:1],,2,2-4[8:1],,,,,3,,3/4,3/4,,2/5,2/5,,6,,5/6,5/6,,4/7,4/7,,6,6,4,4,5,5,3>5[4:3],,Cf,,,,,,,,
2h[16:11],,,,
{16}
1x,,,1x,,,
{8}
3x/8x,,7h[4:1],,8,,2h[4:1],,1,1,,2/8,,2,,3,,4h[4:3],,B2/E3,,B4/E5,,B6/E7,,7xh[16:11],,,,
{16}
8x,,,8x,,,
{8}
1x/6x,,2h[4:1],,1,,7h[4:1],,8,8,,1/7,,2/4,,1/8,,5/7h[4:3],,E5,,E1,,C,,6h[2:1],,,,5h[2:1],,,,4h[2:1],,,,3h[4:3],,,,4h[4:1],,,,5h[4:1]/6h[4:1],,,,4>1[4:1]/5<8[4:1],,,,,,1b/8b,,3/4,3/4,,1/2,1/2,,7/8,7/8,,5/6,5/6,,3/4,,2/5,,1>8[2:1]/6,,,,,,,,
1,1,8,8,1,,2/7,,
{12}
2x,1x,2x,1x,,,7x,8x,7x,8x,,,6,5,6,5,,,3,4,3,4,,,
{4}
2>5[4:1]/5,,6<1[4:1],,3,1/2,1/8,2/7,
{16}
3h[16:3],,,2h[16:3],,,1h[16:3],,,8,,,1/8,,,,6h[16:3],,,7h[16:3],,,8h[16:3],,,1,,,1/8,,,,
{8}
3,3,4,,2,2,1,,7,7,8,,6,6,5,,
{16}
6h[16:3],,,8h[16:3],,,1h[16:3],,,3,,,3/4,,,,3h[16:3],,,1h[16:3],,,8h[16:3],,,6,,,5/6,,,,
{4}
7>2[4:1],,3<6[4:1],,8-4[4:1],,3,1/7,
{8}
1,1,2,2,3,3,4,4,5,5,6,6,7,7,8,8,
{4}
1bpp4[4:5]/8bqq5[4:5],,,,,,,,B4,B3,B2,B1,B8,B7,B6,B5,Ch[2:3],,,,,,,,7bh[4:1]/8b,5,
{16}
5/6,,,3/4,,,2,,
{4}
1-5[8:1]/2-5[8:1],,8-4[8:1]/7-4[8:1],,1/2h[4:1],4,
{16}
3/4,,,5/6,,,7,,
{4}
7-4[8:1]/8-3[8:1],,1-5[8:1]/2-6[8:1],,
{8}
7,7,5/6,,3,3,2/4,,1,2,3/4,,6,6,5/7,,7-4[8:1]/8,,1,,1/2-5[8:1],,8,,6,5,4/7,,3,4,2/5,,5/6h[4:1],,8,,
{16}
7/8,,,1/2,,,3,,
{4}
3-8[8:1]/4-8[8:1],,5-1[8:1]/6-1[8:1],,3h[4:1]/4,1,
{16}
1/2,,,7/8,,,6,,
{4}
5-1[8:1]/6-1[8:1],,2/8,4b/6b,2-5[8:1],7-4[8:1],1-5[8:1],8,6-1[8:1],4-8[8:1],5-1[8:1],3,
{8}
2,2,4,4,5,5,7,7,
{16}
1,8,1,8,1,8,1,8,
{8}
1,,2b/7b,,1,1,2/8,,
{16}
5/7,,,4/5,,,2/4,,
{8}
2-7[8:1]/4,,6-3[8:1],,1,,2/4,,5/6,7,1/8,,
{16}
2/4,,,4/5,,,5/7,,
{4}
5/7-2[8:1],3-6[8:1],8,4/5,2>8[2:1]/8,,,,B2/B3/E3,B6/B7/E7,Ch[4:1],,
{8}
7/8,,1/6,1-4[8:1]/6-3[8:1],,,,,2-5[8:1],,1,1-6[8:1],,4b,,,5,5,4/6,,
{16}
7h[16:3],,,6h[16:3],,,
{8}
5,3,3,2/4,,
{16}
3h[16:3],,,4h[16:3],,,
{8}
5,7,7,6/8,,
{16}
6h[16:3],,,7h[16:3],,,
{8}
8,2,2,1/3,,
{16}
2h[16:3],,,3h[16:3],,,
{8}
4,4,,
{16}
3b/4b,,,5b/6b,,,7b/8b,,,1b/2b,,,4b/5b,,,7b/8b,,,2b/3b,,,5b/6b,,,
{8}
1bx/8bx,1x/8x,2x/7x,,5/6,5/6,,3/4,3/4,,2/6,2/6,,7/8,7/8,,2/5,,
{16}
3h[16:3],,,4,,,2/5,,2/5,,,,6h[16:3],,,5,,,7/4,,7/4,,,,3h[16:3],,,4,,,2/5,,2/5,,,,4/7,,,3/8,,,1/2,,1/2,,,,
{4}
2-5[8:1],6-1[8:1],4,3-8[8:1],7-4[8:1],1,2-6[8:1],7-4[8:1],3,
{16}
2x/4x,,,3/5,,,4/6,,4/6,,,,1/3,,,3/4,,,2/5,,2/5,,,,8/6,,,6/5,,,7/4,,7/4,,,,1/3,,,3/4,,,2/5,,2/5,,,,7h[16:3],,,5,,,4/8,,4/8,,,,
{4}
2-5[8:1],6<1[8:1],4,3-8[8:1],7<4[8:1],1,2-6[8:1],8-4[8:1],1,
{16}
1,8,1,8,1,8,1,8,1,8,1,8,
{1}
1bV36[4:7]*V74[4:7],,,
{4}
4h[4:1]/6h[4:1],,3h[4:1]/5h[4:1],,,3<6[2:1],,,7V53[4:3],,,,2h[4:7],,E3,E4,E5,E6,E7,C,
&inote_5=(188)
{1},
6bh[1:2]/2b,,Ch[1:1],8<5[4:3],{4}B5/B4/E5,
3h[4:1],{16}4,,,5/4,{8},6/5,6h[4:1]/5,,4,4,,5/3,,
{24}E6,B5,B4,{8}E4,,,,6,5,3,2,
6,5,3,2,
7,6,4,5h[4:1]/3h[4:1],,,
5b/4b,{16}4,5,3,6,3,6,2,7,2,7,
{24}1x,8x,1x,8x,1x,8x,1x,8x,1x,8x,1x,8x,
1x-5[8:1],8x,1x,8x,1x,8x,{4}1bx,
6b/4b,{16}5,4,5,,7h[16:3]/4,,,6h[16:3],,,5,,
5/4,,3,4,3,,5/2,,{24}E3,B3,B4,{16}E5,,8,,8,,
7b/1b,,,,3,4,3,,5/2h[16:3],,,3h[16:3],,,4,,
5/4,,6,5,6,,4/7,,{24}E7,B6,B5,{8}E5,8b/2b,,
7xbhh[8:1]/1xbh[8:1],,{16}3,4,2,,5/1h[16:3],,,7h[16:3],,,5,,
6/4,,7,5,7,,8/4,,{24}E7,B6,B5,{8}E5,1,1,
8b/2b,,{16}7,5,6,,5h[8:1]/3h[8:1],,,4h[8:1]/2h[8:1],{8},5/1,
5/1,,8/2,7/3,{24}6,4,6,{8}4,7-4[8:1]/3-8[8:1],,
7b/3b,,5/1,6/2,7h[16:3]/3,{16},5h[16:3],{8},6,
7x/4x,,5/2,5/2,{24}3,4,3,{8}4,4x/3x,5/4,
6b-1[8:1]/5,,6/4,3,2h[16:3],{16},4h[16:3],{8},3,
5/2,,7/4,7/4,{24}6,5,6,{8}5,8/4,6,
3h[4:1],4,5,3h[4:1],5,6,4h[4:1],6,
7h[4:1],5,3,6h[4:1],4,2,5/1,5/1,
4/2,{16}3,5,3,5,3h[8:1],,6,5,6,,3,4,3h[8:1],,
{12}A7,A6,A5,A2,A3,A4,5,5,5,6b/4b,,,
{8}4h[4:1]/2h[4:1],,,5/1,2h[16:3],{16},4h[16:3],{8},3-7-1-5[8:5],,
7x,,5x,,6x,,7,
7bh[4:1]/5h[4:1],,,6/5,{12}4x,4x,4x,{4}5x/3x,
{24}2-4[8:1],6,2,6,2,6,{4}2-8v6[8:3],,,
7h[4:1]/5h[4:1],{16},,8/4,,7h[16:3],,,5h[16:3],{8},6-2-8-4[8:5],,
2x,,4x,,3x,,2,
2bh[4:1]/4h[4:1],,,3/4,{12}5x,5x,5x,{4}4x/6x,
{24}7-5[8:1],3,7,3,7,3,{4}7-1v3[8:3],,,
5bh[32:65]/2b,,,,4,4,3,3,
{32}3,4h[32:23],,,{8},,,{32}6,5h[32:7],,,{8},,,
{16}3,5,3,5,4,6,4,6,
5-8[8:1],6,5,6,5b,,,,
7/1,2,3,5,6,7,1,2,3,5,6,7,
2,3,4,6,7,8,2,3,4,6,7,8,
2,1,2,1,3,4,3,4,2bh[4:3],,,,
{32}E6,E5,E4,E3,E2,E1,E8,E7,
E6,E5,E4,E3,E2,E1,E8,E7,
{16}D6/E6/B5/A5,,,,
4h[8:1]/3h[8:1],,,5h[8:1]/2h[8:1],{8},6/1,6/1,7/2,8/3,8/3,
{12}4,4,6,5,5,7,6,6,8,5,5,1,
3,3,4,2,2,1,4,4,8,7/5,,,
{16}3,4,,6,5,,2,4,,7,5,,6/4,,6/4,,
{24}3,2,1,8,7,6,{16}5x,,6x/4x,,2,1,2,,8b/3b,,,,
2-4[8:1],,,4,,,5-1[8:1],,,3,,,3,,2,,
8/1-5[8:1],,,7,,,6-8[8:1],,,2,,,4,,,,
3,8,3,7,3,6,3,5,
2,4,2,3,2,1,2,1,
3h[8:1],,,3h[8:1],,,4/2,,
5h[8:1],,,5h[8:1],,,6/4,,
7-5[8:1],,,5,,,4-8[8:1],,,6,,,6,,7,,
1/8-4[8:1],,,2,,,3-1[8:1],,,7,,,5x,,,,
6,1,6,2,6,3,6,4,
7,5,7,6,7,8,7,8,
6b,,1,5,2,4,2,4,
3,3,5,5,4,4,6,6,
{8}3-6[8:1],3,7-2[8:1],7,4-1[8:1],4,8,8,
8/2,7/3,6/4,5/3,6/2,7/1,
{16}8x-4[8:1],8x,8x,8x,{1}8xb`Cf,,
{12}A7,E7,E6,A8,B8,C,A1,E2,E3,E5/B4/E4,,,
A2,E3,E4,A1,B1,C,A8,E8,E7,E5/B5/E6,,,
{4}7p1[4:3]/3q1[4:3],,,,,8/2,
{16}5/2,,3,5,4>1[8:1],,6/5,,
7-3[8:1]/4b,,,,7,,1,1,4,,2,2,5,,6/4,,
7/3,,2,1,3h[8:1],,4,2,6h[8:1],,5,7,{8}1>4[8:1],5,
6-2[8:1]/1b,,6,{16}4,4,1,,3,3,8,,7/1,,
6/2,,3,4,2h[8:1],,1,3,7h[8:1],,8,6,1-3[8:1],,5,5,
1b-7[8:1],,4,4,1>3[8:1],,6,6,1<7[8:1],,5,5,1-4[8:1],,6,6,
1-5[8:1],,5,5,1,,6,6,5x,,4,6,3,7,2,8,Cf,,,,
1,2,3,4,8/5h[16:3],,,6,,,4/3,,5/2,,7,8,,6,5,,
5/4,,2,4,{8}2>5[8:1],6/1,
8-4[8:1]/2b,,8/1,{16}2,2,5x,,4,4,8,,7/1,,
6/2,,3,4,2h[8:1],,1,3,7h[8:1],,8,6,{8}1-5[8:1],8/2,
7-3[8:1]/1b,,7/8,{16}1,1,4,,2,2,5,,6/4,,
7/3,,2,1,3h[8:1],,4,2,6h[8:1],,5,7,4>2[8:1],,8,8,
4b,,6,6,1-5[8:1],,7,7,1b,,8,8,4-8[8:1],,7,7,
4b,,5,5,{8}2b-6[8:1],7,8b-4[8:1]/2b-4[8:1],,8b/2b,,
4x/3x,{16}3,4,2,5,1,,
7x/3x,,6,5,7,4,8h[8:1],,
{32}1,2,3,4,5,6,7,8,
1w5[8:1],2,3,4,5,6,7,8,
{8}1,,7b/3b,,
2-5[8:1],8-4[8:1],2,8,1h[8:1],{16},4h[8:1]/2h[8:1],{8},5/3,
6-4[8:1],2-6[8:1],6,2,8h[8:1],{16},7h[8:1]/5h[8:1],{8},4/6,
3-8[8:1],4-7[8:1],3,4,1h[8:1],{16},8h[8:1]/2h[8:1],,,7/3,,
7/3,,6,5,6-2>5-8[8:3],,8,,{4}6x/2x,,
7bh[4:1]/1b,
{32}1,2,3,4,5,6,7,8,
1,2,3,4,5,6,7,8,
{12}1b/Cf,,,
8,8,8,1,1,1,
{16}7,6,5,4,1,2,3,4,
{8}7x/5x,8x,7x/1x,6/2-6-2[4:1],,8,8,,
{16}7,1,7,1,7,,6/2,,{24}E6,B5,B4,{8}E4/Cf,,,
1/2,8/3,7/4,{24}5,6,5,{16}6h[16:3],,,7h[16:3],{8},8,
8/7,1/6,2/5,{24}4,3,4,{16}3h[16:3],,,2h[16:3],{8},1,
8/3,7/4,6/5,{24}4,5,3,{16}4h[16:3],,,1x,{8},8x/7x,
1/6,2/5,3/4,{24}5,4,6,{16}5h[16:3],,,7x,,,6x/2x,,
1,8,1,8,
{32}1,2,{8}3h[8:1],{32}7,6,{8}5h[8:1],{32}2,3,{8}4h[8:1],{32}8,7,{8}6h[8:1],
{32}2,E3,B3,{16}B4,{32},7,E7,B6,{16}B5,{32},1,E2,B2,{16}B3,{32},8,E8,B7,B6,{16},
4,,4,,
5b/4b,,3,4,2,,5/1,,7,8,6,,5/1,,2,4,
3,,5/1,,7,5,6,,{24}3,4,3,{8}4,7b/1b,,
{16}2,3,4,1,2-6[8:1],3,4,,6x/2,,,,
7,6,5,8,7-3[8:1],6,5,,3x/7,,,,
1,2,3,8,1-5[8:1],2,3,,5x/1,,,,
7,5,7,5,8-4[8:1]b,5,8,5,8>7[4:1],,,,
{32}E8,E1,E2,E3,E4,E5,E6,E7,
D8,D1,D2,D3,D4,D5,D6,D7,
{16}D8/A8f/D1/E8/E1/B8,,,,
3,4,3,4,2-5[8:1],5,2,5,2,,,,
7,5,7,5,8-4[8:1],4,8,4,8,,,,
5,3,6,2,8-5[8:1]*-3[8:1],,7/1,,8b,,,,
2b,4,3,5,4,5,3,4,2h[8:1],,{24}1,8,7,
{16}6b/4,,6,4,5,4,6,5,7h[8:1],,{24}8,1,2,
{16}3b/5,,3,5,4,5,3,4,2h[8:1],,{24}1,8,7,
{16}6b/4,,3,4,1w5[8:1],,8/2,,1,,,,
6xb,5x,7x,3b,4,2,6b,5,7bh[8:1],,{24}1,2,3,
{16}6b,5,7,3b,4,2,7b,8,6bh[8:1],,{24}2,3,4,
{16}7b,8,6,3b,4,2,7b,1,6b/2b,,,,
{24}1,8,1,8,1,8,1,8,1,8,1,8,
2-6[8:1],7,2,7,2,7,
{4}2b<5>1[4:7]`Cf,,,,,,,{1}1xb<1[1:2]b,,
{4},,1x,{16}4/2,,,5/3,{8},6/4,6h[4:1]/4,,5,5h[4:1],,7,,{24}E6,B5,B4,{8}E4,,,,
3h[8:3],6,5,4,6h[8:3],3,4,5,7-4-2[4:1]/4,7/4-1[8:1],
