&title=Marbleblue.
&artist=MisoilePunch♪
&first=0.66
&des=
&des_4=鳩ホルダー
&des_5=Twinrook & Safari
&lv_4=12+
&lv_5=14
&inote_4=(198.22)
{1}
,4>6[4:11]/5h[2:11],,,,6q4[4:5],,
{16}
4,5,4,5,4,5,4,5,
{8}
4,,3/6,3h[8:5]/6h[8:5],,,,,,,1/8,,
2b/7bh[4:11],,8,8,,5,5,,2x,,8,8,,5,5,,2x,,8,8,,5,5,,
2/4,,4/5,,5/7,,1/8,,2bh[4:3]/7b,,1,1,,4,4,,5h[4:3]/7x,,6,6,,4,4-8[8:1]b,,
{1}
,,7<3[1:1],,2q6[1:1],,7>5[4:7],,
{4}
Ch[1:1]f,,,,,,,1b/8b,
{8}
3/7,,4/6,5,3,3,2/4,,2/6,,3/5,4,6,6,5/7,,3/7,,4/6,5,3,3,2/4,,1-5[8:1]/7-5[8:1],,,,8-4[8:1]/2-4[8:1],,,,5/7,,2/6,6,4,4,7,7,2/6,2,8,8,1,1,2/8,,5h[4:1]/7h[4:1],,,5/7,,2/4,,3/6,,1b/8b,1b>4[4:1]/8b<5[4:1],,,,,,
{16}
4h[8:7],,,,A1,B1,C,B5,A5,,,,,,6h[1:1],,,,,,A8,B8,C,B4,A4,,,,,,3h[1:1],,,,,,A2,A1,A8,A7,A6,,,,,,5h[8:7],,,,,,A7,A8,A1,A2,
{8}
A3,,,,2/8,,3,3h[4:1],,4>6[2:1],,,,,,,
{16}
2h[16:3],,,3h[16:3],,,{8}
4,4,,5/6,5/6,,2/3,,7bp4[2:1]/8bpp3[2:1],,,,,,,,,
2/8x,2/8x,2/8x,2-5-7-4[8:5]/8xh[8:7],,,,,,,,,
{16}
3/5,,,4/6,,,
{8}
8,1x/7,1x/7,1x/7,1xV35[4:1]/7,,,,,
{16}
6xh[16:3],,,5xh[16:3],,,7xh[8:1],,3xh[16:3],,,4xh[16:3],,,
{8}
2x,7,6,5,7,6,5,7,6,5,7,4/6,,2,3,4,2,3,4,2,3,4,2,3/5,,
{16}
7h[16:3],,,6h[16:3],,,5h[16:3],,,4h[16:3],,,3h[16:3],,,2h[16:3],,,1h[16:3],,,8h[16:3],,,7h[16:3],,,6h[16:3],,,5,,
2x,8,2x,8,2x,8,2x,8,2x,8,2x,8,2x,8,2x,8,
{1}
1bxw5[1:1],,
4>5[4:11],,,,4>5[4:11]b,,,,
{2}
3h[1:2],,E4,E5,6h[1:2],,E6,E5,B3/B4,B5/B6,B2/E3,B7/E7,1>4[1:1]/8<5[1:1],,,,
{12}
3x,4,3,4x,,,6x,5,6,5x,,,2x,1,2,1x,,,7x,8,7,
{8}
8x-4[8:1],,,,2bx/6bx,,
3-5[8:1],,6x,,7-4[8:1],,3x,,2-6[8:1],,8x,,1/7,,3/5,3/5,,1/2qq6[2:1],,7x,,,,,,,7/8,,5/6,4,3,2,
{16}
1h[16:3],,,4h[16:3],,,3,,4,,5,,6,,7,,8h[16:3],,,5h[16:3],,,
{8}
6,5/7,,3,2/4,,7/8,1/6,,1/2,3/8,,4/5,
{4}
3/6,1b/8b,2-4[16:1],6-8[16:1],1-5[16:1],6,7-5[16:1],3-1[16:1],8-4[16:1],3,2h[4:1],4h[4:1],6h[4:1],8h[4:1],
{8}
1,1,7,7,3,3,4/5,,6-4[8:1],,2,2-6[8:1],,8,8-4[8:1],,3,3h[4:1],,5,5,,2/6,,
{1}
Ch[1:1]f,B1/B2/B7/B8/E1/E2/E8,
{16}
2,1,2,1,2,,7,8,7,8,7,,2,4,2,4,2,,7,5,7,5,7,,3/6,,,,1/8,,,,2,1,2,1,2,,7,8,7,8,7,,3,1,3,1,3,,6,8,6,8,6,,2x/7x,,,4x/5x,,,1x/8x,,,,,,
{4}
A2/A3/A6/A7/B2/B3/B6/B7/Cf/E3/E7,,,
{8}
1,2,3,4,8,7,6,5,3h[4:1]/4-8[8:1],,,,6h[4:1]/5-1[8:1],,,,
{16}
2h[16:3],,,4h[16:3],,,5h[16:3],,,7,,,
{8}
1bx/8bx,,7/8,,3/5,,6,5,4/7,,1/2,,4/6,,3,4,2/5,2/5h[24:7],
{12}
,,3x,,4x/6x,,2x/5x,,4x/7x,,1x/5x,,
{1}
4bxqq1[4:3]b/8bxqq5[4:3]b,,,,
{4}
,,
{16}
1/8,,,2/7,,,
{8}
3/6,3/6h[2:1],,4,3,2h[2:1],,6,7,
{4}
8-3[8:1],2-5[8:1],7-4[8:1],1-6[8:1],8w4[2:1],,,,2h[4:3]/6h[4:3],,,,
3b-8[8:1]/5b,7-4[8:1],1-4[8:1],5-8[8:1],2-7[8:1],6-1[8:1],2-5[8:1],8-5[8:1],4-1[8:1],7-3[8:1],2-5[8:1],6-1[8:1],3-8[8:1],7-4[8:1],2-6[8:1],8<1[4:3],Cf,,,,1-5[8:1]/8-6[8:1],,3-1[8:1]/4-8[8:1],,
{8}
5/7,,3/4,3/4,,5/6,5/6,,2/4,2/4,,3/7,3/7,,2b/8b,,
{16}
1x,,6,5,6,,1x,,6,5,6,,1x,,6,5,6,,3x/7x,,3x/7x,,,,8x,,3,4,3,,8x,,3,4,3,,8x,,3,4,3,,6x/2x,,6x/2x,,,,
5h[16:3],,,3h[16:3],,,1h[16:3],,,7h[16:3],,,5h[16:3],,,2h[16:3],,,4h[16:3],,,6h[16:3],,,8h[16:3],,,2h[16:3],,,4x,,1,5,1,5,1,5,1,5,1,5,1,5,1,5,1,5,1,2,3,4,5,6,7,8,1,2,3,4,5,6,7,8,
{1}
1bp8[4:7]/5b,,5p4[4:7],,C,
&inote_5=(198.22){4}5,4,3,2,
{4}1>7qq4[4:7]/8h[4:8],,,,,,,,
,,,,5,4,3,2,
5h[4:6]/1q7q4[4:5],,,,,,,,
{16}4,5,4,5,4,5,4,5,4,5,4,5,4,,3b/6h[8:5],,{4},,{16}3,5,4,5,{8}1b,,
2-5[8:1]/4,,5,6-3[8:1],,1,2>5[8:1],,1/2,,6,7-3[8:1],,1,2>5[8:1],,
1/2,,7,8-4[8:1],,1,{4}2h[4:1],4h[4:1],6h[4:1],8h[4:1],1b,
{8}7/8,6,6,4/5,3,3,2/4,2/4,1-5[8:1],1,7-3[8:1],7,2-6[8:1],2,5<3[4:4],,
{4}4b,,,,,,4/5,,
4h[4:2]/6h[4:3],,,{8}5,5q2[4:2],{4},,,,
5h[4:2]/3h[16:14],,,{8}4,4p7[4:2],{4},,,,
4/6h[4:3],,5,{8}4,4h[8:5],,,{4}E4,E5,E6,
{8}6,6,4,5,3h[4:1],,C,,{16}1,8,1,8,2,8,1,8,{4}2-5[8:1],5b,
{8}6<3[8:3],,3,3<8[8:3],,8,8>5[8:3],,5,5<2[8:3],,2,2,,4,,
3>6[8:3],,6,6>1[8:3],,1,1<4[8:3],,4,4>7[8:3],,7,7,,5,,
{4}4/6-1[8:1],3-6[8:1],7-3[8:1],1>4[8:1],1/8,{8}7/5,6/4,{16}3b/5b,,,1b/2b,,,8b/7b,,
{8}1/6,1-5[8:1]/6,,1b>4[8:1]/6b<1[8:1],,1b/6b,,3bx/8bx,,2/6,2/6,,4/5,,18,,
{16}2h[4:1]/7,,,,7,8,1,2,3,4,5,6h[16:3],,,3h[4:1],,,,5,,3/5,2,1,8,7,6,5,4h[16:3],,,6h[4:1],,
,,5,,6/5,7,8,1,2,3,4,5h[16:3],,,3h[4:1],,,,7,,3/7,6,5,4,3,2,1,8,7/3,,,,
4/6h[4:1],,,,4,5,6,7,8,1,2,3h[16:3],,,6h[4:1],,,,2,,6/2,5,4,3,2,1,8,7,{8}2/6,,
1/7,1/7-3[8:1],,7/2-6[8:1],,2/5,,1/7,,2/6,2V48[8:3]/6V48[8:3],,,,,,
1/7,1/7,1/7,1-5-2-6[8:5]/7h[8:7],{4},,,,{16}8x,,,1x/7x,,,2x/6x,,
{8}3/5,3/5,3/5,3/5h[4:1],,{16}4,4,7b,,,,{6}2h[6:1],4h[6:1],3,7h[6:1],5h[6:1],6,
{16}3,4,2,4,2,,6,5,7,5,7,,2,4,3,4,3,,7,5,6,5,6,,2,1,3,1,3,,7,8,
6,8,6,,3,4,2,4,3,,6,5,7,5,6,,2,8,2,8,2,8,2,3,4,7,6,5,1,2,3,7,
6,5,3,2,1,6,7,8,4,3,2,8,1,8,1,8,2,4,3,5,4,6,5,7,1,8,2,7,4xw8[8:1],5x,3x,6x,
{32}4x,Cf,,,{8},{4},,,,,,,
{1}5h[4:12]/4>6[4:6],,
{24}B6,A6,,{8},{4},,,{24}B4,A4,,{8},{4},,,
{1}3h[4:12]/4<2[4:6],,
{24}B2,A2,,{8},{4},,,{24}B4,A4,,{8},{4},,,
3/6h[4:12],,,,{24}A5,D6,,{8},{4},{24}D4,A4,,{8},{4},
3h[4:6],,,,,,E5/B4/B5,,
{1}1>8[4:5]/8<1[4:5],,
Ch[4:4],{4},,{16}1,2,3,4,8,7,6,5,
{12}3b,3,3,4,4,4,5,5,5,6,6,6,7b,7,7,8,8,8,{16}1x/7x,,,3x/5x,,,{8}4hx[16:5]/5hx[16:5],
,{48},,,,3bx/6bx,2bx/7bx,{8}1bx/8bx,,2x-5[8:1]/7x,,1/2,8,7-4[8:1]/4,,1/7,2,3-8b[8:1],{16},5,{8}3/5,6,
1/7p3[8:1],,2,1-5[8:1],,1/8,,3b/7bh[4:3],,{16}E5,E6,E7,E8,E1,E2,E3,E4,E5,,{8}1b/8b,,
2/6,{16}3,5,4,6,5,,4h[8:1]/7h[8:1],,,8h[8:1]/5h[8:1],,,4/7,,4/7,,6,4,5,3,4,,2h[8:1]/5h[8:1],,,1h[8:1]/4h[8:1],,,2/5,,
3b/4b,,6,5,7,,1/8,,2,4,3,,4/5,,6,5,7,,4/8,,1,2,1,,{8}3-8[8:1]/7-4[8:1],4/8,3/7,,
1b/5b,,{12}5,1,1,6,2,2,7,3,3,4>1[4:1]/8,,,8,7,6,{16}5h[16:3],,,7h[16:3],,,1h[8:1],,
4h[4:1],,,,{12}1,4,4,8,3,3,7,2,2,6,1,1,{16}5h[4:1],,,,2,4,3,4,{4}3-7[8:1],
3/6-4[8:1],6/1-5[8:1],{8}1/7<4[8:1],8,7/3-8[8:1],,3/6>3[8:1],7,6/1,,{16}2h[16:3],,,4h[16:3],,,3,,
3,4,3,4,2,5,2,5,1,6,1,6,8,7,8,7,8-4[8:1],,,,,,,,8x,4x,8x,4x,8x,4x,8x,4x,
8,7,6/5,4,3,2,8,7,6/5,4,3,2,7,6,4/5,3,2,1,7,6,4/5,3,2,1,7<4[8:1],8,7,8,7,,,,
A1,E2,E3,A3,A5,E6,E7,A7,A1,B1,C,B5,A8,E8,E7,A6,D1,D2,D3,D4,D5,D6,D7,D8,{16}1x/8x,,,2x/6x,,,1x/7x,,
{32}1/7,2,3,4,5,6,7,8,{4}1b/Cf/B4/B5,,,{16}1/6,2,3,4,5/8,7,6,5,4/2,3,4,5,6/8,7,6,5,
2h[8:1],,4,4,3,,6,6,5,,{8}1/7,3/5,4/6,{16}3/7,,2,1,,3,4,,7,8,,6,{8}5,4/7,
3b/8bh[4:1],,{16}1,2,3,4,2,3,4,5,1,2,3,4,7,6,5,4,8,7,6,5,7,6,5,4,2,1,2,1h[16:3],
,,{6}2-5[16:1],6-3[16:1],4-1[16:1],7-3[16:1],2-6[16:1],8b<2b[24:13],{8},{4},,,
{1}2h[4:7]/6h[4:7],,
4w8[4:3],{4},,1-5[8:1]/8-4[8:1],1/8,
3/6,{8}3/4,3/4,2/5,2/5,1/6,1/6,7/8,7,7/5,7,2/8,2,2h[8:1]/4h[8:1],,
{16}3,5,3,5,3,5,2,5,4,5,4,5,2,5,3,4,{4}5bx/1h[4:3],,,{32}5,4,3,2,1,8,7,6,
{4}5bw1[4:3]/4b,,,,,,2/8,4/6V82[4:1],
2V46[4:1],6,{8}1,2,{4}8/3V17[4:1],7V53[4:1],3,{8}8,8,1-5[8:1]/7,,
{4}1>4[8:1]/4,1/6h[4:1],{8}5-1[8:1],7,5<8[8:1],,2/5,3,4w8[8:1],,4,,2x/6x,,
5h[4:1],,3,2h[4:1]/4,,6,7h[4:1]/5,,4,3h[4:1]/5h[4:1],,,1-5[8:1]/8-4[8:1],,1b/8b,,
{16}6,5,7,5,6h[8:1],,3,4,2,4,3h[8:1],,7,5,6,5,7h[8:1],,2,4,3,4,2h[8:1],,7,8,7,6,7h[8:1],,2,1,
2,3,2h[8:1],,6,5,6,7,6h[8:1],,3,4,3,2,3h[8:1],,8b,7,6,4/5,3,2,1/8,7,6,4/5,3,2,1/7,6,5,3/4,
2,1,7/8,6,5,1/4,2,3,4/6,7,8,1/2,3,4,5/6,7,2b,1,2,1,2b,1,2,1,3b,8,2,1,3b,8,2,1,
3b,7,4b,7,5b,7,6b,7,{32}8bx,1,2,3,4,5,6,7,8bx,1,2,3,4,5,6,7,
{1}8bxpp4[4:6]/4bxpp8[4:6],,
3qq1>5[4:6]/7qq5<1[4:6],
