&title=INFiNiTE ENERZY -Overdoze-
&artist=Reku Mochizuki
&first=0.44
&des=
&des_5=Jack vs サファ太
&lv_5=14
&inote_5=(180)
{8}4bx,3-6[8:1]/5,,7bxh[8:3],,,5x,,
6,6,5,5,4h[8:1]/6h[8:1],,{16}3,5,3,5,
{4}3h[8:1],2h[8:1]/4h[8:1],3h[8:1]/5h[8:1],{16}6-3<5-8[2:1],4,6,4,
{8}6x,,,,,1x,2bx/8bx,,
3-8[8:1]/7-5[8:1],3/7,,,1,2,5,6,
7-1[8:1],7,5,4,8,7,1h[8:1]/6h[8:1],,
{16}3,4,3,,2h[8:1],,1,,7,8,7,,6h[8:1],,5,,
{8}4,3,5,6,3-5[8:1]/7-3[8:1],3/7,,,
8bh[4:1],,5,4,3/5,6,4/7,3,
5pp4[4:1],5,4,,3h[4:1],,{16}4x,2x,4x,2x,
{8}5-7[8:1],5,1,2,8-2[8:1],8,4h[4:1],,
Ch[2:1],,,,,,1b/8b,,
{16}7<4[8:1],,7,,1,,1,,3,4,3,,7,,5/6,,
3,4,3,,6,,5/7,,2,8,2,8,1b,,,,
6,5,6,,2,,3/4,,6,5,6,,1,,2/8,,
6-1[8:1],,6,,2-5[8:1],,2,,8,,8,,1x/7x,,,,
3/4,,2,,7,8,7,,1-5[8:1],,1,,7<4[8:1],,7,,
3,,2,,7,8,7,,1,,3,,7,5,7,5,
6-4[8:1],,6,,2-6[8:1],,2,,8<5[8:1],,8,,3,,3,,
2/4,,3/5,,6,5,,5,,7,8,,2b/6b<5[1:2],,,,
{1}Cf,
,
,
,
{2}4-2[4:1],6-4[4:1],
8-6[4:1],2-8[4:1],
{4}6h[4:1],5h[4:1],4h[4:1],3h[4:1],
{16}4,,3/5,,6,5,,3xq5[16:5]/7x,,,,,,,,,
{8}6x-2-8-4[4:3],,5,,4,,3,,
2xh[4:1],,1,,7/8,1b/6b,,3/4x,
3-7-1-5[4:3]/4x,,4,,5,,6,,
7xh[4:1],,8,,1x-5[8:1],1x,8b,,
4/6x,6,6,6,3x/5,3,3,3,
2/8x,8,4x/8,8,1x/7,1,1/5x,1,
{16}2,4,2,4,3,5,3,5,4,6,4,6,5p4[2:1],7,5,7,
{8}5x,,,,,8,2b/6b,,
{16}3/4,,2,,1/7h[16:3],,,5,,5,6,,3,4,2,,
5/6,,7,,2h[16:3]/8,,,4,,4,3,,2/5,,1,,
7/8,,6,,3h[16:3]/5,,,4,,2,1,,7,8,7,,
1/2,,3,,4/6h[16:3],,,5,,7,8,,1x/6x,,,,
4bh[8:1]/7bh[8:1],,,,6,5,,4/7,,2,1,,7,8,7,,
2bh[8:1]/5bh[8:1],,,,3,4,,2/5,,7,8,,2,1,2,,
4b/8b,,4,,6-1[8:1],,6,,2b-5[8:1],,2,,7,,7,,
8b-4[8:1],,1/7,,8,,,3x/5x,,2,1,,3b/8b,,3b/8b,,
2x/6x,,7h[8:1],,1,8,,2/6,,3,4,,6,5,7,,
3/4,,2h[8:1],,8,1,,7/3,,6,4,,3/8,,3/8,,
1/2,,3h[8:1],,5,4,,2/5,,7,8,,2,1,3,,
7/8,,6h[8:1],,4,5,,4/7,,2,1,,3x/8x,,,,
2b/5b,,2/5,,3,4,,2/5,,7,8,,2,1,3,,
4b/7b,,4/7,,6,5,,4/7,,2,1,,7,8,6,,
1b/5b,,1/5,,2/6,,3/7,,4/8,,{24}1,8,7,6x,,,8,1,2,
{8}3x>4[8:3],,,,,8,2x/6x,,
3b/4b,2x>5[8:1]/5x,,2b/8b-4-8b[4:1],,3x,3b,,
1,1,2/8,2/8,3v8b[8:1]/7-4b[8:1],4/8,E4/E8f,,
{16}1x,,1,,3,4,,5/6,,7,8,6,1,5,2,4,
3,,1/2,,7,8,,5/6,,3,4,2,5,1,6,8,
7,,1/6,,3,4,,2/8,,6,5,7,4,6,3,5,
2,,3/8,,6,5,,1/7,,3,4,2,5,3,6,4,
7,,7,,2,1h[8:1],,3,8-4[8:1],3,8,3,8b,,,,
3,,2/5,,7,8h[8:1],,6,1,6,1,6,2b/5b,,,,
{8}3-5[8:1],5,3,6,7-1[8:1],4,7,2,
3-8[8:1],4,3,6,7,7,{16}1,8,1,8,
{8}2V48[4:1],2,7,6,5V73[4:1],5,3,2,
1<7[8:1],4,1>3[8:1],5,1,6,4b/8b,,
5/7,4,5/7,3,5/6,2,5/6,1,
3/4,8,3/4,7,2/4,6,2/4,5,
{16}3,5,3,5,2,6,2,6,1,7,1,7,8x,8x,8x,8x,
{8}8z4b[16:3]*-5b[16:3],,,,,4x/5x,2/7,,
{16}2-5[8:1]/7-4[8:1],,1x/8x,1x/8x,2bx/7bx,,,,2h[16:3]/7,,,4,3,,6,,
5/7,,4,,1/2,,8,,7,5,7,5,6,,3,,
2/4,,1,,7/8,,5,,3h[16:3],,,4,2,,2,,
1/5,,6,,7,8,7,,4/6,,2,1,2,,3/5,,
2-6[8:1]/6,,2/6,,8b,,,,1/7h[16:3],,,5,6,,3,,
2/4,,5,,7/8,,1,,6,,5/7,,2,4,2,4,
3,,8,,1/2,,4,,6h[16:3],,,5,7,,7,,
2,1,2,,7,8,7,,3bh[8:1]/4bh[8:1],,,6bh[8:1]/7bh[8:1],,,1b/2b,,
3/8-4[8:1],,3/8,,2-5[8:1],,2,,7,,7,6,,3,4,,
1-5[8:1]/6,,1/6,,8,,8,,7,5,7,5,6,,2,,
3/4,,1/5,,6,8h[8:1],,7,1h[8:1],,8,2h[8:1],,1,3,,
5/6,,4/8,,3,1h[8:1],,2,8h[8:1],,1,7h[8:1],,8,6,,
1/2,,3/7,,6,5,7,,2-6[8:1],1,2,1,2,,7,,
7/8,,2/6,,3,4,2,,7/8,,1/2,,7-3[8:1],8,7,8,
7,,2,,1/8,,7,,4x/5x,,{24}1b/2b,3,4,5x,,,7b/8b,6,5,
{4}4x>5[2:1],,,8b-4[8:1],
{1}Cf,,
