&title=Cider P@rty
&artist=Ryo Fukuda
&first=1.4
&des=
&des_4=きょむりん
&des_5=Jack
&lv_4=11
&lv_5=13
&inote_4=(180)
{4}
4/6,,5,4/6,,4/6,5,,3/5,,4,3/5,,3/5,4,3,2/4,,3,2/4,,3,3/4,,
{8}
3h[4:1]/5h[4:1],,,4h[4:1]/6h[4:1],,,5,,
{8}
2/7,2/7,
{4}
,,4/5,6h[2:3],E6,E7,E8,E1,E2,E3,,3h[2:3],E4,E3,E2,E1,E8,E7,,
{8}
6,6,5,,3,3,4,,7,7,5,,2,2,4,,3,3,2,2,1,1,8,,2bx/7bx,,,,,,2/5,,
{4}
3/6-4[8:1],,3/7-4[8:1],,3/4-8[8:1],,1/7,1/7,3-5[8:1]/6,,2-5[8:1]/6,,5-1[8:1]/6,,
{8}
8,8,1,,1>3[8:1]/6<8[8:1],,,,1,1,2,,1/2-4[8:1],,,,1/2-5[8:1],,,,6x,,,4x,5x,,3h[4:3]/4>5[2:1],,,,,,,,3/5,,3-5[8:1]/4h[2:1],,,,6-2[8:1],,,,8,8,1,1,7b,,,,1-7[8:1]/8h[2:1],,,,6-2[8:1],,,,8,8,1,1,7b,,,,2-5[8:1]/6-1[8:1],,,,1<6[8:1]/5>2[8:1],,,,2/6,2/6,2/6,2/6,3b/7b,,,,5x/6x,,,7x/8x,
{4}
7x/8x,3x/4x,2bx/5bx,3,4,5,4h[2:1]/6h[2:1],,,,3h[2:1]/5h[2:1],,,,6h[4:1],5h[4:1],4h[4:1],3h[4:1],2h[4:1],1h[4:1],8h[4:1],1b,
4/6,,
{16}
4x/6x,,,3x/4x,,,
{8}
1x/2x,,7,1,,2b/6b,,,,3/5,,3/5,,
{16}
5x/6x,,,7x/8x,,,
{8}
1x/2x,,8,2,,3b/7b,,,,4/6,,4/6,,
{16}
3x/4x,,,1x/2x,,,
{8}
7x/8x,,6,6,,
{16}
5x/7x,,,4x/6x,,,
{8}
3x/5x,2,2,4,,
{16}
3x/5x,,,4x/6x,,,
{8}
5x/7x,4,4,6,6h[8:3],8bx,8bx,8bx,8bx,7,,,,2/5,,,,3,3,5,5,4b,,,,6,,5,,
{16}
3x/4x,,,1x/2x,,,
{8}
7x/8x,,1,1,,2b/8b,,,,5/6,,,2/3,,,7/8,,,3/4,,,2/5,,3,3,2/4,,,6/7,,,1/2,,,5/6,,,
{4}
3b>5[1:2]/6b<4[1:2],,
{1}
,,
{8}
E7,,,E5,,,E3,,,,5bpp8[4:9]b,,4qq1[1:2],,,,,,,,,,,,,,,,,,,,E3,,,C,,,E7,,,,6bqq3[4:9]b,,2qq7[1:2],,,,,,,,,,,,,,,,,,,,B7/B8/E8,,,B1/B2/E2,,,B4/B5/E5,,,,,,
{4}
B2/B3/B4/B5/B6/Cf,,1/7,,8,1/7,,8,1/7,2/8,3/4,
{8}
5/7,5/7,,2/4,
{4}
2/4,3b/6b,,,,7h[2:3],B1,E3,E5,E6,C,E1,,2h[2:3],B8,E7,E5,E4,C,E1,,
{8}
5/6,5h[4:1]/6h[4:1],,,3/4,3h[4:1]/4h[4:1],,,5/7,5h[4:1]/7h[4:1],,,2/4,2h[4:1]/4h[4:1],,,
{4}
Ch[1:1]f,,,,,1/7,2/8,4b/6b,
7/8,3/4,1/2,4/6,7/8,2/5,
{8}
3,3,
{4}
2/4,1/2,5/6,7/8,3/5,1/2,4/6,
{16}
4h[16:3],,,3h[16:3],,,
{8}
2,
{4}
1/2,5/6,7/8,3/5,1/2,4/7,
{8}
6,6,
{4}
5/7,7/8,3/4,1/2,4/6,7/8,3/5,
{16}
3x,4x,3x,,
{4}
2bx/5bx,7/8,1/6,1/2,3/8,7/8,1/6,7-4[8:1]/8-3[8:1],,1/2,3/8,7/8,1/6,1/2,3/8,1-6[8:1]/2-5[8:1],,7/8,3/4,1/2,5/6,4-1[8:1]/6-1[8:1],,2/8,2/8,
{8}
3x/5x,,,3x/4x,
{4}
3<2[2:1]/4h[2:1],,,,4-1[8:1]/5-8[8:1],,2h[4:5]/7h[4:5],,,,,,1-5[8:1]/2-5[8:1],,4/6,4/6,3/4,1/2,7-4[8:1]/8-4[8:1],,1-5[8:1]/2-5[8:1],,
{8}
6,5,
{4}
6,4/7,4/7,1-5[8:1]/2-5[8:1],,7-4[8:1]/8-4[8:1],,
{8}
3h[8:1]/5h[8:1],,,1x/2x,
{4}
1x/2x,7x/8x,3x/4x,3bx/4bx,5/6,7/8,
{8}
2,1,
{4}
2,7/8,1/6,2-5[8:1]/6-1[8:1],,1<6[8:1]/5>2[8:1],,2,1/2,5/6,5/6,7-4[8:1]/8-4[8:1],,1-5[8:1]/2-5[8:1],,4/6,3/5,5/7,2/4,3/4,7b/8b,5/6,1b/2b,
{8}
4,4,3,3,2,2,1b,,
{16}
8,1,8,1,8,1,8,1,
{4}
8b,1b-5[8:1]/8b-4[8:1],
&inote_5=(180)
{4}3h[2:3],,,5h[1:1],,,,,6h[8:11],,,4h[8:5],,,6-2[8:1]/4z8[8:1],,
1hx[2:1],,3>4[4:3],,,,C,,
2/4,{8}6,5/7,,3,{4}1>4[8:3]/5<8[8:3],,,
{16}4,8,3,7,2,6,1,5,{8}2,2,6,4,4/6,,3/6,3,6,5,6/5-1[8:1],,6,,2/8,,
3/7,7,3,5,3/5,,3/6,6,3,4,4-8[8:1]/3,,3,,1/7,,2/6,3,5/4,6,4/7,6,3/5,2,1/4,2,3/5,4,6/5,7,5/8,7,
{16}4,5,4,5,3,6,3,6,2,7,2,7,1,8,1,8,{4}2x/7x,
{16}6/5,,3,4,{8}2,8/7,6pp5[4:1]/1,,3hb[4:1],,,,
2/4,3,6h[8:1],5h[8:1],7,4,2h[8:1],4h[8:1],3,5,4/6,4/6,3-6-4[8:1]/7,,,,
8,8,7h[8:1],5h[8:1],6,4,3h[8:1],4h[8:1],2,5,{4}4h[8:1]/6h[8:1],
8v5[8:1]/2v5[8:1],8b-6[8:1]/2b-4[8:1],8/2,
{8}1,1,2h[8:1],4h[8:1],3,5,6h[8:1],5h[8:1],7,4,3h[4:1]/5h[4:1],,,
3/5,2V47[4:1]/6,,7V52[4:1],,2,,8<5[8:1],8,1>4[8:1],,8/1,,
{1}7bpp2[2:1]/3bpp6[2:1],
{8}1/5,8/4,7/3,6/2,5q1[8:1]/1q5[8:1],,,,
3x/7hx[4:1],,5,4,{2}3v6[8:1]/5h[4:1],3v8[8:1]/7h[4:1],3-7[8:1]/5h[4:1],
{4}8-4[8:1]/6-8[8:1],8x/6x,
{8}1/3,8,7/5,4,3h[2:1]/5,6,7,8,{4}1-5[8:1],,
4h[4:1]/6h[4:1],{8},4/6,{4}7V52[4:1]/3,2V47[4:1],7,
{8}1,8,{4}7/2>4[4:1],4<6[4:1],6<8[4:1],8>2[4:1],2>5[4:1],5<8[4:1],8>3[4:1],3<6[4:1],6<1[4:1],1>4[4:1],4<8[4:1],8>4[4:1],4-8[8:1],8,
{8}7,5,2,4,3h[16:3]/7h[16:3],,2-5[8:1]/6-1[8:1],,{2}2b/6b,
{16}3h[8:1]/7h[8:1],,,3h[8:1]/7h[8:1],,,{8}37,,
2/6,1h[4:1]/7-3[8:1],,7,,
{16}2,4,2,4,{4}3-8[8:1],7-4[8:1],{16}1h[8:1],,,1h[8:1],{8},2/8,,
4/6,{4}7-3[8:1]/3-7[8:1],3>1[8:1]/7<5[8:1],,8q4[8:1]/4q8[8:1],,
{16}2h[8:1]/6h[8:1],,,2h[8:1]/6h[8:1],{8},2/6,,3/7,3/7<4[8:1],,
{16}2h[16:3],,,3h[16:3],{8},4,2>5[8:1],2,1,,
{16}7h[8:1],,,6h[8:1],{8},5,4/6,2,3/5,7,4/8x,4x/8,4/8x,4x/8,5-2[8:1]/1-6[8:1],,,,
1-3[8:1]/5-7[8:1],,1/5,,
4/8,3,2/6,5,4/3h[6:1],,{16}5,3,5,3,{4}6>3[8:1],2-5[8:1],
{16}8h[8:1],,,8h[8:1],{8},1/7,,2/6,{4}2-4[8:1]/6-8[8:1],{2}2-6[8:1],
{8}8<5[8:1],,,3>8[8:1],,,6>3[8:1],,,1<6[8:1],,,
4h[4:1],,5,4,3V57[8:1],,,8V24[8:1],,,5V71[8:1],,,2V46[8:1],,,{1}8-4[1:4],,
{8},,,,A1,,,A2,,,A3,,{1},
2qq3[8:29],,{8}D5,,,D7,,,D6,,{1},
6p4[8:21],,{8}D4,,,D3,,,D2,,,,,
2/4,5/7s3[8:1],,,,1,1,2/4h[4:1],,5h[4:1],,7-3[8:1],,2h[4:1],,
4,5,6,7,8h[4:1],,1,,4/3,2/5,,6/5,{4}4>1[8:3]/8<5[8:3],,,
{16}1,5,2,6,3,7,4,8,{4}5h[4:7],E7,E6,C,E4,E3,E2,E1,
4h[4:7],E3,E4,C,E6,E7,E8,E1,
{8}3,3,2/4,5,6,6,5/7,4,3,3,5,4,7,7,5<4[1:1],6,{1},
{8}6hx[4:1],,3,2,1-4[8:1]/5v8[8:1],4/8,Cf,,
3b/7b,2,8,1/7,6,2,1/7,6,4,2>5[8:1]/8,7,6,,
{16}7,5,{8}6,1,2/8,7,6,5/3,2,1,8/7,6,5,4/3h[4:1],,1,{16}8/2,3,4,5,6,7,{8}8,
5<8[8:1],4,,2>5[8:1],1,,7>2[8:1],6,,4<7[8:1],3,2,,{16}1,8,{8}1,2/7,
6h[4:1],,5,3h[4:1],,4,{4}5-8[8:1]/2,5x/1-4[8:1],1x/7,
{16}8,7,6,5,3,2,{8}1x,7-4[8:1],8,7,2>5[8:1],1,2,7p3[8:1],8,7,1-5[8:1],8,1,,
{16}7,8,{8}7,1/6,5<8[8:1],4,3,2>5[8:1],1,8,7>2[8:1],6,5,4-8[8:1],,4,
2,2/1,7,8/7,2-5[8:1],1,2,7<4[8:1],8,7,2q6[8:1],1,2,8-4[8:1],1,8,,
{16}2,1,{8}2,3/8,4h[4:1]/7h[4:1],,,2/5,{4}2-5[8:1]/5,2x/8-3[8:1],8x/6-1[8:1],6x/4-7[8:1],2b/4x,
8-6v7-5s1[2:3]/1-3v2-4z8[2:3],{2},,,{8},
{32},8b/1b,2x/7x,3x/6x,{8}5bx/4bx,,
7-3[8:1],8,{4}1>4[8:1],1<6[8:1],1-5[8:1],1,
{8}4/6,7,8/1,2,3-8[8:1]/5,,7-4[8:1],6,1-5[8:1],,5w1[8:1],,,,
4x/6x,,2h[8:1],4h[8:1],5h[8:1],7h[8:1],2>5[8:1],,8h[4:1],,
1,8,7<4[8:1],,1h[4:1],,8,,7h[8:1],5h[8:1],4h[8:1],2h[8:1],{4}C,
1q5[8:1]/8,5>2[8:1],6,1/7<4[8:1],4q8[8:1],{8}3,2,1,8,7/3,,
2-6[8:1],1,{4}8<5[8:1],8>3[8:1],8-4[8:1],8,
{8}3/5,2,8/1,7,6h[8:1]/4h[8:1],,
{16}3,4,{8}3,2/5,2/5,1/6,1/6,8/7,8/7,{16}6,5,{8}6,4/7,4/7,3/8,3/8,2h[8:1]/1h[8:1],,
{16}3,4,3,4,1,8,1,8,5,6,5,6,4,5,3,4,2,1,3,8,4,7,5,6,4,5,3,4,{4}2<3[2:3],Cf,
