&title=勦滅
&artist=siqlo
&first=0.025
&des=
&des_4=はっぴー
&des_5=ロシェ@ペンギン
&lv_4=11+
&lv_5=14
&inote_4=(200)
{1}
,4>5[4:11],,,,
{8}
5h[2:3]/6,,,7,,8,8,,,7,7,,6,,4/5,,3/4h[2:3],,,2,,1,1,,,2,2,,3,,4/5,,5h[2:3]/6,,,7,,8,8,,,7,7,,6,,4/5,,3/4h[2:3],,,2,,1,1,,,2,2,,3,,2/5,,6,6,4,4,7,7,1,1,4,4,3,3,7,7,5p4>6[1:1],,,,,,,,,,Ch[2:1]f,,,,,,,,
1h[8:1]/8h[8:1],,1h[8:1]/8h[8:1],,2h[8:1]/4h[8:1],,2h[8:1]/4h[8:1],,5h[8:1]/7h[8:1],,5h[8:1]/7h[8:1],,1h[8:1]/8h[8:1],,2x,2x,3h[8:1]/4h[8:1],,3h[8:1]/4h[8:1],,1h[8:1]/2h[8:1],,1h[8:1]/2h[8:1],,8-4[8:1],,1-3[8:1],,5-7[8:1],,1x,,2h[8:1]/8h[8:1],,3h[8:1]/7h[8:1],,2h[8:1]/6h[8:1],,3h[8:1]/5h[8:1],,2-6[8:1],,7-3[8:1],,1-5[8:1],,8,,8h[4:1],,7h[4:1],,6h[4:1],,5h[4:1],,4h[4:1],,3h[4:1],,2h[4:1],,1b,,
3/5,,5,4,6,5,4,3,2-5-1[8:3],,,,,,,,4/6,,4,5,3,4,5,6,7p5[2:1],,,,,,,,3/5,,4,5,6,5,4,3,2-5[8:1],,6-1[8:1],,3,,3,,4/6h[4:1],,5,,3h[4:1]/5,,4q6[2:1],,,,,,,,,,3bh[4:1]/4h[4:1],,,,2bh[4:1]/4h[4:1],,,,1b/4,,1b-4[8:1]*-5[8:1]/4,,,,,,6,6,5,7,3,3,4,2,7,7,5,5,5/6,,4/5,,3,3,4,2,6,6,5,7,2,2,4,4,3/4,,4/5,,6,6,8,7,3,3,1,2,6,6,8,7,1,,3/4,,
{16}
2xh[8:1]/4xh[8:1],,,2xh[8:1]/4xh[8:1],,,3xh[8:1]/5xh[8:1],,,3xh[8:1]/5xh[8:1],,,4xh[8:1]/6xh[8:1],,,4xh[8:1]/6xh[8:1],,,5xh[8:1]/7xh[8:1],,,5xh[8:1]/7xh[8:1],,,5x/7x,,,,,,,,5xh[8:1]/7xh[8:1],,,5xh[8:1]/7xh[8:1],,,4xh[8:1]/6xh[8:1],,,4xh[8:1]/6xh[8:1],,,3xh[8:1]/5xh[8:1],,,2x>5[4:1]/6x<1[4:1],
{4}
,,,,B6/B7/E6,B2/B3/E4,8bxh[4:1],5,5/7,2/4,1/8,7-5v3[2:1],,,1,2-4v6[2:1],,,8,
{8}
5/7,5h[4:1]/7h[4:1],,,4/6,,3h[4:1],,1,,6h[4:1],,8,,4,,3-1v7[2:1],,,,,,5,,6-8v2[2:1],,,,,,4,,1/3,1h[4:1]/3h[4:1],,,1/8,,6h[4:1]/8h[4:1],,,7,7,8,1,2,7,8,1,2,
{1}
3b>6[4:5],,
{4}
2h[2:1],,4,,7h[2:1],,5,,3h[2:1],,1,,6h[2:1],,8,,2h[2:1],,4h[2:1],,5h[2:1],,7h[2:1],,1,1,2,2,3,3,4,4,5h[4:1]/6h[4:1],,7h[4:1]/8h[4:1],,1>7[2:1]b,,,,
(150)
{8}
7x-3[8:1]/8x-4[8:1],,,,2,2,1q5-8[8:3]/4h[4:1],,,,,,,,7x/8x,,1-5[8:1]/2-6[8:1],,,,7,,3/5,,D2,D1,D8,D7,D6,D5,D4,,2x-6[8:1]/1x-5[8:1],,,,7,7,8p4-1[8:3]/5h[4:1],,,,,,,,2x/1x,,8-4[8:1]/7-3[8:1],,,,2,,6/4,,D8,D1,D2,D3,D4,D5,D6,,7,7,5,5,8,8,1,1,2h[12:1]/4h[12:1],,5h[12:1]/7h[12:1],,2h[12:1]/4h[12:1],,3b/5b,,2,2,4,4,1,1,8,8,
{12}
5/7,,4/6,,3/5,,2/4,,3/5,,4/6,,
{1}
5p4[2:1]/7h[4:1],
(200)
{8}
2,2h[4:1],,4,4h[4:1],,5,,6,6,5/6,,7/8,,1/6,,7,7h[4:1],,5,5h[4:1],,4,,3,3,3/4,,1/2,,3/8<2[2:1],,Cf,,,,1x,,1x,,3/5,,3/5,,4/6,,4/6,,7h[4:3],,E6f,,Cf,,E4f,,1xs5[2:1],,,,,,,,7<4[8:1]/8>3[8:1],,,,1<6[8:1]/2>5[8:1],,,,7<4[8:1]/8>3[8:1],,,,1/2,,1/2,,3/4,,5,6,7h[4:1],,5,4,3h[4:1],,4pp8[2:1],,2,,,,1h[4:1],,4,4,2,2,6,7,7h[4:1],,4,4,6,6,2,1,1h[4:1],,4,4,,5/8,5/8,,7-5[8:1]/8-4[8:1],,,,1h[4:1]/2h[4:1],,,,8,1,2,8,1,2,3,4,5,6,7,7,
{16}
5,,,4/5,,,2/4,,
{8}
1,8,7,1,8,7,6,5,4,3,2,2,3xh[12:1]/4xh[12:1],,5xh[12:1]/6xh[12:1],,4,5,6,4,5,6,7,8,1,2,3,4,Ch[4:1]f,,,,E1,E8,E7,E6,E5,E4,E3,E2,8,7,6,5,4,3,2,1,
8bxh[8:29],,,,,,,,,,,,,,,,,,,,,,,,5,5,,3,,1-5[8:1],,6b,
&inote_5=(200)
{1}
,3-7-1>5[2:3]/8h[2:7],,
{4}
E6,E7,E8,E1,E2,C,E6,8-4[8:1],
{32}
D3,A2,D2,,
{8}
,,5,,4,4,4,,7,5,6,4,5,3,,25,,,4,,5,5,5,,2,4,3,5,4,6,,47,,6,56,,3,3,34,,5,5,4,6,5,4,,25,,3,34,,6,6,56,,4,4,5,3,4,5,,
56,7,7,7,18,2,2,2,34,5,5,5,67,8,8h[4:1],,
{16}
1,7,1,7,2,6,2,6,3,5,3,5,3,5,3,5,
{8}
3h[4:1],,1s5[4:1],8,7-3[8:1],,,,
1x,,24,4,14,4,48,4,14,4,24,4,34,4,2x/4x,2xh[8:9]/4x,,,5,5,6,6,7,7,
{16}
8x,7,6,5,1x,2,3,4,
{8}
1x/5x,1x/5x,2x/7x,,C,,1x/8x,1,27,7,36,3,4x/5x,,2x/3x,,67,5x/8x,5x/8x,,
{12}
4,4,7,3,3,6,2,2,5,1,1,4,8,1,2,3,4,5,
{2}
6w2[8:1],
{8}
4x/8x,,3,3,,5,6,7,38,38,
{16}
2,1,2,1,
{8}
3-6[8:1],8,8,,7,,6,5,,34,34,,
{4}
3x-5[8:1]/8xh[4:1],3,
{8}
8,7,6,5,4-8[8:1],,34,3,,7,6,5,1x/4x,,2x/7x,,
{2}
5-1[8:1]/6-1[8:1],
{16}
2/8h[4:1],,,4,4,,,,1h[4:1]/7,,,5,5,,,,
{12}
2x,8,3,7x,1,5,2x,8,3,7x,4,6,
{16}
56,,7,8,7,8,7,8,7,,2,1,2,1,2,1,
{8}
2,,2x/7x,,
{16}
6,5,
{8}
6,1b/7b,,
{16}
2x/5x,,3,4,3,,25,,3,4,3,,25,,1,,78,,78,,6,5,6,,3,4,3,,5,,6,,
4x/7x,,6,5,6,,47,,6,5,6,,47,,3,,27,,8,1,8,1,8,,2,1,2,,38,,7,,
5x/6x,,3,4,3,,25,,3,4,3,,5,,6,,
{4}
7x/E1/B1/B8,2x/E5/B4/B5,
{8}
7x,2,18,18,
{16}
5h[8:1]/7h[8:1],,,5h[8:1]/7h[8:1],,,2h[8:1]/4h[8:1],,,2h[8:1]/4h[8:1],,,
3h[8:1]/8h[8:1],,,3h[8:1]/8h[8:1],,,1h[8:1]/6h[8:1],,,1h[8:1]/6h[8:1],,,
5x/6x,,,3x/4x,,,4x/5x,,
5h[8:1]/7h[8:1],,,2h[8:1]/4h[8:1],,,3h[8:1]/8h[8:1],,,1h[8:1]/6h[8:1],,,
{4}
5/8-4[8:1],3xh[2:1],
{8}
2,2,
{32}
1x-5[8:1],8x,7x,6x,
{8}
5x,1x,,
{4}
E8,E7,E6,E5,E3/E4/B3/B4,E6/E7/B5/B6,1b/3b,,
3xh[4:3]/4xh[4:1],,
{64}
A2,A1/D2/E2/B1,A8/D1/E1/B8,A7/D8/E8/B7,A6/D7/E7/B6,,,,,,,,,,,,
{4}
,4xh[4:1]/5xh[4:3],,
{64}
A6,A7/D7/E7/B7,A8/D8/E8/B8,A1/D1/E1/B1,A2/D2/E2/B2,,,,
{8}
,,4xv3-1[8:3],,,,,
{12}
7,8,6,1,5,2,E6,E3,E7,E4,E8,E5,
{2}
1b,
{8}
8,8,8,8,
{32}
1xh[1:0]/6x,B1,
{16}
C,
{8}
,,,2,2,2,2,
{32}
1xh[1:0]/3x,B1,
{16}
C,
{8}
,,7b/8bh[8:3],,,6,5,3b/4b,3h[4:1]/4,,1b,1,8,7,6,5,4,3,2,
{1}
1h[4:7]/7q8>5[2:3],,2p1<4[2:3]/6h[4:7],,3h[4:7]/5pp1<4[2:3],,2>1qq4[2:3]/5h[4:7],,
{8}
6,6,6,6,57,57,57,57,48,48,48,48,13,13,13,,
{12}
2,,34,34,,56,56,,1,2,3,4,7,5,6,2,4,3,
{2}
3-8[8:1]/7-4[8:1],
(150)
{4}
1b-3[8:1]/6xh[8:1],1-5[8:1]/4h[8:1],1>3[8:1]/6h[8:1],1pp5[8:3]/8h[8:1],
1/4h[8:1],8h[8:1],
{16}
7,5,7,5,6pp4[8:3],4,6,4,6,,,,
{8}
2-4[8:1],1,2/5-1[8:1],6,45,3,12,
{16}
8,8,4,4,6,6,
{8}
2h[8:1],4h[8:1],5h[8:1],7h[8:1],8b-4[8:1],,6-2[8:1]/8,5,4-8[8:1]/6,3,2qq5[8:3]/4,1,2/8h[8:1],,6h[8:1],,
{16}
6,5,7,5,8qq5[8:3],5,8,5,
{8}
8,,2-4[8:1],1,2/7-5[8:1],8,2-4[8:1]/7,1,26,7,8-6[8:1],8-2[8:1],8x-5[8:1],8x-3[8:1],8x-4[8:1],8x,8bx,,17,17,26,26,35,35,
{12}
4,6,2,8,4,6,8w4[8:1],8,8,8b,,,
{16}
7,7,4,4,1,1,5,5,8,8,4,4,6,6,3,3,
{6}
2xh[12:1]/4xh[12:1],2xh[12:1]/8xh[12:1],5xh[12:1]/6xh[12:1],
{12}
7b/8b,6,7b/8b,1,7b/8b,6,
{1}
4bqq1[2:1]/5bq8[2:1],
(200)
{16}
2x/5x,,3,4,3,,25,,3,4,3,,25,,1,,6x/8x,,5,,3,4,2,,6,5,7,,8,,1,,
2x/5x,,3,4,3,,25,,3,4,3,,25,,1,,7,8,6,,2,1,3,,7-3[8:1],8,6,,7,,,,
{2}
1x-3[8:1]/4x-8[8:1],4h[4:1]/1-7[8:1],3h[4:1]/1-6[8:1],2h[4:1]/1-5[8:1],
{4}
2x/6-3[8:1],6/8-5[8:1],2-5[8:1]*-7[8:1]/8,2,
{12}
6,5,4,3,2,1,
{4}
8w4b[8:1],8b,
{8}
1x,1,1,
{16}
1,2,
{8}
3h[4:1]/5,5,5,
{16}
5,6,
{8}
7h[4:1]/1,1,1,
{16}
1,2,
{4}
3h[4:1]/5,8-2[8:1]*-6[8:1],8,
{8}
1,8,47,6,25,3,58,6,14,3,58,6,
{16}
1-6[8:1]/7,2,3,4,1x/5x,,,,7,5,7,5,
{8}
6h[4:1],8<4[4:1],2,2h[4:1],,,
{16}
2,4,3,4,2,,24,,7,5,6,5,
{8}
7b-3[8:1],,78,2b-6[8:1],,12,
{4}
7b,5,5x-1b[8:1]/6x-2b[8:1],5bx/6bx`E6f,,
{16}
4x,7,3,8,2,1,3x,4,2,5,1,6,8,7,8,7,1,2,3,4,8,7,6,5,3xh[8:1]/4xh[8:1],,,5xh[8:1]/6xh[8:1],,,1x/8x,,
7x,4,7,4,6,5,6,5,8,3,1,2,8,3,1,2,8,7,6,5,1,2,3,4,
{12}
7b,7b,7b,4b,4b,4b,
{16}
6,5,7,4,8,3,5,4,6,3,7,2,4,3,5,2,6,1,6,1,7,2,7,2,
{32}
8b,7,6,5,4,3,2,1,8,7,6,5,4,3,2,1,
{8}
4x/8b,4,4x/6b,4,2b/4x,4,4x/8b,4,
{16}
6x,3,7x,1,6x,3,7x,2,6b,2,5b,2,4b,2,3b,2,
{1}
8bz4[4:15],,,
{8}
8,8,,2,1,8-4b[8:1],7,
{32}
8x,B8,Cf,B4,
