&title=ザムザ
&artist=てにをは
&first=0.325
&des=
&des_4=まぐランド
&des_5=Jack&アマリリス
&lv_4=9+
&lv_5=12+
&inote_4=(121)
{2}
3h[2:1],4h[2:1],5h[2:1],6h[2:1],5h[2:1],4h[2:1],3h[2:1],4,
{4}
3h[4:3],4,,4,3,3/4,4/5,5/6,6h[4:3],5,,5,6,5/6,4/5,3/4,3h[4:3],4,,4,3,3/4,4/5,5/6,6h[4:1],5,,6,6,7,1/8,1/8,1b/8b,
2,8,7,1,2,1,8,7h[2:1],8,3h[2:1],1,6h[2:1],5,3h[4:1],4,2,3/4,7,5/6,3,3/4,
{8}
4,4,3/5,,
{4}
7,6/5,2,4/3,6,6/5,
{8}
5,5,6/4,,2,,1,,8,8,1/7,,1,,2/8,,3/7,,4/6,,4,,5,,6,6,5/7,,5,,4,,3,,2V46[2:1]/5h[4:3],,,,,,,,7V53[2:1]/4h[4:3],,,,,,,,2-5-1[8:5]/7h[1:1],,,,,,,,,,1/8,,2/7,,3>5[4:3]/6,,,,,,,,,,,,4/5,4/5,4/5,,3/6,2/7,1/8,,
1x-5[8:1]/2x-5[8:1],,,,7x-4[8:1]/8x-4[8:1],,,,
{16}
3/5,,,2/6,,,
{8}
1/7,,1,1>4[4:1],,,,5<8[4:1],,,,,,2x/8x,2x/8x,
{16}
1x,1x,,2x/7x,
{8}
,1/8,1/8,,7x-4[8:1]/8x-4[8:1],,,,1x-5[8:1]/2x-5[8:1],,,,
{16}
6/4,,,7/3,,,
{8}
8/2,,,2,,2h[4:1],,4h[4:1],,5h[4:1],,7,,5/6,5/6,5/6,,3/4w8[2:1],,
{2}
,,7,6,5,4,3,
{4}
2h[4:3],E1,B2/E2,B3/B4/E4,5,4-8[4:1],,,1/7,B8,B6/E7,B4/B5/E5,B2,1-5[4:1],,,4/6,
{8}
7h[4:1],5,5,,4/6,,3/5,,4>2[4:1],,,,,,1,,1pp3[8:3]/8qq6[8:3],,,,,,,,Chf[1:1],,,,,,,,,,,,,,,,,,,,2/7,,1/8,1/8,
7x-4[8:1]/8x-4[8:1],,,,1x-5[8:1]/2x-5[8:1],,,,
{16}
4b/6b,,,3b/7b,,,
{8}
2b/8b,,8,8<5[4:1],,,,4>1[4:1],,,,,,7x/1x,7x/1x,
{16}
8x,8x,,7x/2x,
{8}
,1/8,1/8,,1x-5[8:1]/2x-5[8:1],,,,7x-4[8:1]/8x-4[8:1],,,,
{16}
3b/5b,,,2b/6b,,,
{8}
1b/7b,,,7,,7h[4:1],,5h[4:1],,4h[4:1],,2,,3/5,3/5,2/6,
{16}
,2b/6b,
{8}
,,7h[1:1]/8pp4[4:3],,,,,,,,,,3/7,,2/8,,1/2,,1qq5[4:3]/2h[1:1],,,,,,,,,,6,,,,7/8,,7bx-4b[8:1]/8bx-4b[8:1],,,,2bx-5b[8:1]/1bx-5b[8:1],,,,4qq1b[2:1]/6pp1b[2:1],,,,,,,,3,,3h[4:1],,1h[4:1],,8h[4:1],,7,,8,1/7,2/6,3/5,3/5,,,,
3-1[4:1]/4-8[4:1],,,,,,,,1/8,,1>4[4:1]/8<5[4:1],,,,,,2b/7b,
&inote_5=(121){2}
2>4[8:1],7<5[8:1],1>4[4:1],8<5[4:1],2q6[4:1],7p3[4:1],1-5[8:1],
4h[8:1]/6h[16:3],
{4}5h[2:1],E5,3h[2:1],E4,7h[2:1],E6,5-3[8:1],E7,
2h[2:1],E4,6h[2:1],E6,4h[2:1],E5,7-5[8:1],C,
{16}2h[16:3],,,3h[16:3],,,4,,
6h[16:3],,,5h[16:3],,,4,,
1h[16:3],,,2h[16:3],,,{8}3,4-8[8:1]/3h[16:3],,,,
{16}7h[16:3],,,6h[16:3],,,5,,
3h[16:3],,,4h[16:3],,,5,,
{8}26,8,3/7-3[8:1],1,2-6[8:1]/7,,72,,8b/1b,
7<4[8:1],8,1/7x,3x,2>5[8:1],1,2x/8,6x,81,2,4/3x,6x-1[8:1]/5,,6bx/5bx,,
3x,7<4[8:1],8,7x/1,3x,2>5[8:1],1,2x/8,6x,
87,3x,21,5x/4x,{16}8x/1x,2x/7x,,,,,
{8}3h[4:1],4,5,46,7h[4:1],5,4>1[8:1],,5,6,7<4[8:1],,8,1,32,,
6h[4:1],5,4,35,2h[4:1],4,5<8[8:1],,4,3,2>5[8:1],,1,8,76,,
2,2,8,8,1h[8:1]/7h[8:1],{16},17,,,43,,2h[8:1]/8h[8:1],,,28,
{8},65,1>6[16:3]/7h[16:3],,,,
7,7,1,1,2h[8:1]/8h[8:1],{16},28,
{8},65,1,43,8<3[16:3],2,2,1x,2x/8x,,
{16}6h[16:1]/5h[8:3],,,7h[16:1],,,8,,4h[8:3]/3h[16:1],,,2h[16:1],,,1,,
3h[16:1]/2h[16:1],,,4h[16:1]/3h[16:1],,,5h[16:1]/4h[16:1],,,6hx[16:1]/5hx[16:1],,,7hx[16:1]/6hx[16:1],,,,
5h[8:3]/8h[16:1],,,7h[16:1],,,6,,4h[8:3]/1h[16:1],,,2h[16:1],,,3,,
8x/1x,81,,,3x/2x,32,,,5x/4x,54,,,{4}7x/6x>7[2:1],Cf,,,
26,{16}43,,21,21,,65,,87,{8}87,35,2b/6b,,
3x/7x-3[8:1],1,87,{16}2,2h[16:3],{8},1,43,65,{16}87,1x/6x,,87,1x/6x,,87,1x/6x,,,
3,,43,,2,2,1,,38,,54,,7,7,8,,16,,54,,38,,1,,28,,65,65,,3b/7b,
{8},87,65,43,2>5[8:1]/1,8,7,6,8/7<4[8:1],1,2,3,
{16}21,3x/8x,,21,3x/8x,,21,3x/8x,,2bx/1bx,,,
6,6,5,,{8}4-8[8:1]/7-5[8:1],47,,,2-4[8:1]/5-1[8:1],25,,,
87,21,57,42,{1}5b<4[2:1]/4b>5[2:1],
{4}4h[4:1],{16}5,,,B2,,B6,,4x,{4}4x,
5h[4:1],E5/B4,3h[4:1],E5/B5,6h[4:1],{16}E5/B4,,,B7,,B3,,5x,{8}5x,,
1,1,2,2,3-8[8:1],3,7-4[8:1],7,3,3,3,{16}3,4,,4,{8}3,25,,
7,6,2,3,4-1[8:1]/8-5[8:1],,,,6,6,6,{16}6,5,,5,{8}6,47,,
3,4,35,{16},2h[8:1],,3h[8:1],,4,{8}4,,
6,5,46,{16},7h[8:1],,6h[8:1],,5,{8}5,,
4,5,43,{16},{8}65,54,{16}43,{2}4-8[8:1]/3-1[8:1],
6-8[8:1]/5-1[8:1],{2}4>5[4:5],,,
{16},,,{64}A7,B7,C,B3,{8}A3
,,,
{16},2x>5b[8:1]/1xV35b[8:1],,,87,,,,,
8xV64b[8:1]/7x<4b[8:1],,,21,,,,,,
21,3x/7x,,21,3x/7x,,21,3x/7,,,65,,43,,2,2,1>4[8:1],,8,,7,,
6,6,{8}5<8[8:1],4,3,2,81,24,{16}57,57,,2b/6b,
{8},21,43,65,8/7<4[8:1],1,2,3,2>5[8:1]/1,8,7,6,
{16}87,2x/6x,,87,2x/6x,,87,2x/6x,,8bx/7bx,,,
3x,4x,,6x,{8}5x,47,8<5[8:1],8,1>4[8:1],1,8,6,57,24,36,{16}81,8/1w5[8:1],{4},Cf,
{2}7h[2:1],6h[2:1],5h[2:1],4h[2:1],3h[2:1],2h[2:1],1h[2:1],
{4}8w4[8:1],8b,2x-4b[8:1]/1x-5b[8:1],E2f,2x-6b[8:1]/1x-7b[8:1],E2f,
2b>6b[4:1]/1b,6b<2b[4:1],E2f/B1/B2,,
{8}7-3[8:1],8,7,1,2-6[8:1],1,2,8,87,21,57,42,54,{16}8/1,8-5[16:21]/1,
{4},4,4,4,4,4,4,E5,{8},54,E8/E1/E2/E3/E7/B7/B1/B8/B2/Cf,
