&title=つづみぐさ
&artist=いよわ
&first=0.65
&des=
&des_4=サファ太
&des_5=はっぴー
&lv_4=10
&lv_5=13
&inote_4=(170)
{1}
,,
{4}
3h[2:1]/6,5,4,3,2/4,1/5,
{8}
2,2,
{4}
2V46[2:1],,,,7v4[2:1],,,,5,3/6h[2:1],4,5,6,5/7,4/8,
{8}
7,7,
{4}
7V53[2:1],,,,2v5[2:1],,,,4/6,
5h[4:1]/7h[4:1],,4/6,4/6,5h[4:1]/7h[4:1],,5/6,4/5,5h[4:1]/6h[4:1],,6h[4:1]/7h[4:1],,5/7,
{8}
6,6,
{4}
5,4/6,3h[4:1]/5h[4:1],,2/4,2/4,3h[4:1]/5h[4:1],,3,3/4,3h[4:1]/4h[4:1],,2h[4:1]/3h[4:1],,1,2,3b/4b,,6,5/7,3,2/4,
{8}
1,1,
{4}
8,1/7,2/6,3,2/4,6,5/7,
{8}
8,8,
{4}
1,2/8,3/7,5h[4:1],6h[4:1],7h[4:1],8,
{8}
1,1,
{4}
8,1/2,1/2,1h[4:1],2h[4:1],3h[4:1],4,2h[4:1]/5h[4:1],,3h[4:1]/6h[4:1],,
4/7<4[2:1],,,,B4,,A3/E3,,2>5[2:1],,,,E6,,A6/E7,,7-3[8:3],,,2,2-6[8:3],,,7,7h[4:3],,5,,4x/6x,
{8}
,3/7,
{4}
3/7,,
2b/5b,3/4,1/2,
{8}
7,7,
{4}
8,2/6,3/4,5/6,7-4[8:1]/8-4[8:1],,1-5[8:1]/2-5[8:1],,7/8,
{8}
6,6,
{4}
5,2/4,1b/5b,
{8}
3,3,
{4}
4,5/6,1/8,
{8}
2,2,
{4}
4,3/8,1-5[8:1]/2-5[8:1],,7-4[8:1]/8-4[8:1],,1/2,1/2,4/5,3/7,2h[4:1],3h[4:1],4h[4:1],5h[4:1],6h[4:1],7h[4:1],8,7/8,5/6,3/4,
{8}
2x/6x,2x/6x,
{4}
,
(180)
7h[4:1],5,3h[4:1],4,6,5/6,4/7,2/8p3[8:3],,,2,1q6[8:3],,,7,7/8,2h[4:1],1,6h[4:1],8,2,1/2,3,4q7[8:3]/8,,,6,5/6,4/5,3/4,2b/6b,,3h[2:1]/7,7<4[4:1],,,1/2,1<6[4:1]/2h[2:1],,,5,4,3/4,
{8}
2,2,
{4}
1,2/8,3/7,3/7,6h[2:1]/2,2>5[4:1],,,8/7,8>3[4:1]/7h[2:1],,,4,5,6/5,4/7,1/2,3/4,2h[2:3]/5,,
E5,E4,E3,E2,C,,7h[2:3]/8,,E1,E8,E7,E6,C,,1/2h[2:3],,E2,E3,E4,E5,C,,1x/8x,1/8,7h[4:1],5h[4:1],4h[4:1],2,1x-6[4:1],,8xz4[4:3],,,,,,
{8}
3xh[4:1]/4xh[4:1],,,3xh[4:1]/4xh[4:1],,,2xh[4:1]/4xh[4:1],,,2xh[4:1]/4xh[4:1],,,2x/4x,,3x/4x,,5h[4:1]/6h[4:1],,,5h[4:1]/6h[4:1],,,5h[4:1]/7h[4:1],,,5h[4:1]/7h[4:1],,,5/6,,4/5,,3h[4:1]/4h[4:1],,,2h[4:1]/4h[4:1],,,1h[4:1]/4h[4:1],,,2h[4:1]/4h[4:1],,,3/4,,4/5,,B3/B6/Ch[8:3],,,,,,,,
{2}
1>4[4:3],,5<8[4:3],,E1,C,E5,E4/E6,5<8[4:3],,1>4[4:3],,5h[2:3],,4h[2:1],,
{4}
3b/8b,1/2,7/8,
{8}
6,6,
{4}
5,4/6,2/3,1/5,7-3[8:1]/8-4[8:1],,1-5[8:1]/2-6[8:1],,7/8,
{8}
6,6,
{4}
5,3/7,4b/8b,1/2,3/4,
{8}
7,7,
{4}
8,1/6,4/5,3/8,1-5[8:1]/2-6[8:1],,7-3[8:1]/8-4[8:1],,1/2,
{8}
3,3,
{4}
4,2x/5x,3h[4:1]/4,2h[4:1],1h[4:1],8h[4:1],7h[4:1],6h[4:1],5,5/6,7/8,1/2,
{8}
3/7,3/7,,5/6,
{4}
5x/6x,3/4,2/8,
{8}
1x/7bx,1x-5[8:15]b/7bxh[4:13],
&inote_5=(170)
{16}4x,5x,3xh[4:5],,,,
{4}4,4,4,4,
{8}4,5,5,4/6^3[8:1],,
{4}2q6[8:1],7^2[8:1],3^5[8:1],6,
{12}7,5,6,2,4,3,7x,5x,6x,
{8}4x-2-5-1[2:1],,5,,6,,E7,E8,E1,E2,E3,E4,E5,6h[4:1],,4,
{4}3<6[8:1],7p3[8:1],2^7[8:1],6^4[8:1],3,
{12}2,4,3,7,5,6,2x,4x,3x,
{8}5x-7-4-8[2:1],,4,,3,,E3,E2,E1,E8,E7,E6,E5,3qq4[8:3],,4,,,
{16}7h[4:1],,,,4,,4,5,3h[4:1],,,,6,,6,5,7h[4:1],,,,4,,4,5,3,,,,35,,6,5,
{16}7h[4:1],,,,4,,4,5,3h[4:1],,,,5<1[4:1],,,,1>5[4:1],,,,5,,,,1,,,,37,,,,
{16}2h[4:1],,,,5,,5,4,6h[4:1],,,,3,,3,4,2h[4:1],,,,5,,5,4,6,,,,46,,3,4,
{16}2h[4:1],,,,5,,5,4,6h[4:1],,,,4>8[4:1],,,,5,,,,6h[4:1],,,,8,,,,,,,,
{4}6h[8:1],6h[8:1],5h[8:1]/6h[8:1],5-1-4[1:1]/6h[8:1],7h[8:1],7h[8:1],7h[8:1],7h[8:1],
{4}8h[8:1],8h[8:1],2h[8:1]/8h[8:1],2h[8:1]/8-4-8[1:1],1h[8:1],1h[8:1],1h[8:1],1h[8:1],
{4}2h[8:1],2h[8:1],2h[8:1]/4h[8:1],2h[8:1]/4-8[2:1],3h[8:1],3h[8:1],3h[8:1],3h[8:1],
{4}3h[8:1]/8h[8:1],1h[8:1]/6h[8:1],3h[8:1]/8h[8:1],1^6[4:1]/2p5[4:1],,,4x/7x,
{4}6<4[2:3],
{2}E5f,E6,E8,
{4}E2,3>5[2:3],
{2}E5,E4,E2,E8,
{8}57,5h[8:5]/7h[8:5],,,,,,,24,2h[8:3]/4h[8:3],
{4},,1^6[8:1]/2^5[8:1],,8^3[8:1]/7^4[8:1],,1-4[8:1]/8-5[8:1],,
{8},1b/8b,1b/8b,,
{4}2^5[8:1],2/8^5[8:1],3-8[8:1]/8,3/5-8[8:1],2^7[8:1]/5,2/6^3[8:1],6/8w4[8:1],,2x/6x,
{16}3-8[8:1]*-1[8:1],4,2,,,,,,6-8[8:1]*-1[8:1],5,7,,,,,,
{4}2-4-6[4:1],6-4-2[4:1],8,7^4[8:1],
{4}1^4[8:1]/7,1/6-1[8:1],4-1[8:1]/6,4/7^2[8:1],3^6[8:1]/7,1-7-5[8:1]/3,1-3-5[8:1],1,
{16}6-8[8:1]*-1[8:1],5,7,,,,,,3-6[8:1]*-5[8:1],4,2,,,,,,
{4}8xz4[4:1],4xz8[4:1],3,3,
{8}2^5[8:1],2,6,7,8^5[8:1],8,4,3,2-5[8:1],2,6,7,8-5[8:1],8,4,3,2,1,8v6-4b[4:1]*v2-4[4:1],,,,,,
(180)
{16}26,,,7,5,,,2,1,,,2,4,,,6,
{12}6,5,7,3,4,2,6x,5x,4x,
{16}3x,,,,,,2x,1x,2x,1x,2x,1x,2x,,3,,4,,5,,6,,,57,,,17,,,,26,,,,,,
{16}37,,,2,4,,,7,8,,,7,5,,,3,
{12}3,4,2,6,5,4,3x,4x,5x,
{16}6x,,,,,,7x,8x,7x,8x,7x,8x,7x,,6,,5,,4,,3,,,24,,,18,,,,37,,,,,,
{8}2^5[8:1],2,6,6,7^2[8:1],7,5,5,4v1[8:1],4,8v5[8:1],8,2h[4:1],,4<8[4:1],,
{4},5>1[4:1],,4-7[8:1],4-1[8:1],4-8[8:1],4,26,
{8}7-4[8:1],,4,3,2-5[8:1],,5,6,7^4[8:1],,4,3,2^5[8:1],,6^1[8:1],,4,,3-6[8:1]/7-2[8:1],,,,4/8z4[2:1],,3h[2:1],,,,,,35,,
{8}6/4-2[8:1],6,6,6,6/1-5[8:1],6,6,6,6/4-8[8:1],6,6,6,6/1-4[8:1],6,6,6,7/5-3[8:1],7,7,7,7/2-6[8:1],7,7,7,7/5h[4:1],7,7,7,5,5,4,4,
{8}2/4-6[8:1],2,2,2,2/7-3[8:1],2,2,2,2/4-8[8:1],2,2,2,2/7-4[8:1],2,2,2,
{4}1-5[8:1]/5,6-2[8:1],3-7[8:1],8<1[2:1],1,,5bh[4:5],,,,,,
{24}7x/8x,E8,B7,B6,E6,,,,,1x/2x,E2,B2,B3,E4,,,,,7x/8x,E7,B6,B5,E5,,,,,1x/2x,E3,B3,B4,E5,,,,,
{8}7,7,56,56,
{24}5x/6x,E6,B6,B7,E8,,,,,3x/4x,E4,B3,B2,E2,,,,,5x/6x,E7,B7,B8,E1,,,,,3x/4x,E3,B2,B1,E1,,,,,
{8}5,5,34,34,
{24}3x/4x,E4,B4,B5,E6,,,,,7x/8x,E8,B8,B1,E2,,,,,3x/4x,E4,B4,B5,E6,,,,,7x/8x,E8,B8,B1,E2,,,,,
{8}3,3,12,12,
{24}8,7,6,5,4,3,2,1,8,7/Cf,,,,,,,,,,,,,,,
{4}3xh[8:3]/5xh[8:3],,4h[8:3]/6h[8:3],,56,56,45,45,3q5[4:3]/4,,,,6,46,4h[4:1]/6h[4:1],,
{2}Cf,A7/A8/D8,A1/A2/D2,B6/B5/B4/B3,7v2-8-6-4[4:3],,2h[2:1],
{4},7v4[8:1],7/1-3-5[8:1],1/6-1[8:1],6/4-2[8:1],4/7p3[8:1],7/1^4[8:1]*^6[8:1],1w5[8:1],,4x/6x,
{16}7v4[8:1]*-5[8:1],1,7,,,,,,2v5[8:1]*-4[8:1],8,2,,,,,,
{4}6-8-2[4:1],2-8-6[4:1],4,
{4}3v6[8:1],3/8-4[8:1],8/1^4[8:1],1/5-7[8:1],5/2-6[8:1],2/8-4[8:1],8^2[8:1]*-6[8:1],8w4[8:1],,
{16}3v8[8:1]*-1[8:1],5,3,,,,,,6v1[8:1]*-8[8:1],4,6,,,,,,
{4}3/5xs1[4:1],1xs5[4:1],5,2x,
{8}7^4b[8:1],8,3,2,1^4b[8:1],8,5,6,7-4b[8:1],8,3,2,1-4b[8:1],8,5,6,7,8,1v3-5b[4:1]*v7-5[4:1],,,,,3xh[1:1]/7x,,
{8}1b,1b,1b,1b,1bv7-5[2:1],1b,,
{8},,,2p4[4:1],,,,,6^1[4:1],,,,2^4[4:1],,,,E7,,,,E5,,,,
{96}A6,A3,E6,E4,B5,B4,
