&title=おくすり飲んで寝よう
&artist=もちうつね
&first=0.16
&des=
&des_4=アマリリス
&des_5=はっぴー
&lv_4=9+
&lv_5=12+
&inote_4=(130)
{1}
2h[1:1],4h[1:1],
{2}
5h[4:3],6h[4:1],4<1[2:1]/7h[4:3],,
{8}
3h[4:1],,4,,6,6,5,,3h[4:1],,1,,6h[4:1],,8,8,7,,2h[4:1],,1,,7/8,,5/6,,3/4,,1/6,,,,7h[4:1],,5,,2,2,4,,6h[4:1],,8,,3h[4:1],,1,1,2,,3/4,,5/6,,7/8,,7<4[8:3]/8>3[8:3],,,,,,,,
2,,1/2,,7,7,8,,1/2,,3,,4/5,,6,6,5,,3/4,,2,,1/2,,7/8,,7-4[4:1]/8-3[4:1],,,,,,2,,3/4,,6,6,
{4}
5,3/4,2,1/8,7/8,6h[4:1],5,3h[4:1],1w5[8:3],,,,4/7,
5h[1:1]/6h[4:1],,7h[4:1],,8<5[8:3],,,3,3h[4:1]/4h[1:1],,2h[4:1],,1>4[8:3],,,6,6h[4:1],8h[4:1],
{8}
7,7,
{4}
8,6q4[2:1],,,1,2h[4:1],1h[4:1],
{8}
3,3,
{4}
1,1<6[8:3]/2>5[8:3],,,,4/6,3/5,
{8}
6,6,
{4}
5,3/4,5/6,
{8}
3,3,4,,1x/2x,1x-6[8:1]/2x-5[8:1],,,,,,,
5/6,,7,,8,8,1,,2h[4:1],,4,4,,6,6,,7/8,,6,,4/5,,3,,1/2-4[4:1],,,,,,3/5,,2h[8:3]/4,,,1,1,,1/8,,7/8,7/8,,1h[8:3]/6,,,4,4,,3/4,3/4,,1/2,,7/8,7q4[8:3]/8,,,,,,,2bx,,
{2}
3h[2:1],5h[2:1],7V53[2:1],,6h[2:1],4h[2:1],2V48[2:1],,
{4}
3h[4:1],2h[4:1],1h[4:1],2h[4:1],3V17[2:1],,,,6h[4:1],7h[4:1],8h[4:1],7h[4:1],6-8-5-1-4-2[4:5],,,,,,,1x/8x,7/8,5/6,3/4,1/2,
{8}
1x/8x,1x-5[8:1]b/8x-4[8:1]b,
{2}
,,
B1/B5,B2/B6,B3/B7,B4/B8,E4/E8,E3/E7,
{4}
B1,B8,
{2}
,1/5,2/6,3/7,
{4}
4/8,
{2}
1xh[4:1]/5xh[4:1],4xh[4:1]/8xh[4:1],
{4}
3x>8[4:1]/7x<4[4:1],,,2bx/6bx,
{8}
2/6,,3,4,5,,7/8,,7-4[8:1]/8h[4:1],,,,1h[4:1]/2-5[8:1],,,,7/8,,3/4,,1/2,,5/6,,7,7,5,,1/8,,1/8,,4/7,,6,5,4,,1/2,,1h[4:1]/2-5[8:1],,,,7-4[8:1]/8h[4:1],,,,1/2,,5/6,,7/8,,3/4,,1>4[4:1]/8<5[4:1],,,,,,1b/8b,,7<5[8:1]/8p4[8:1],,,,1q5[8:1]/2>4[8:1],,,,6/8,,1/8,,1/2,,3/8,,2/7-2[8:1],,,,3-6[8:1],,,,7,7,5,5,6-3[8:1],,,,1q5[8:1]/2>4[8:1],,,,7<5[8:1]/8p4[8:1],,,,1/3,,1/8,,7/8,,1/6,,2xh[4:1]/5x-1[8:1],,,,4x-8[8:1]/7xh[4:1],,,,2xh[4:1]/5x<4[2:1]b,,,,,,1bx,,
3,3h[4:1],,1,,5/6h[4:1],,8,,3h[4:1]/4,,1,,5/6,,7/8,7/8,,1/2,1/2,,3/4,,5/6h[4:1],,8,,3/4,,1/8,1/8,,3,3/4,,1/7,,5/6,,2/8,,3/4,,1/7,,5/6,4/7,4/7,,1/2,,5/6,,7/8,,3/4,,1/2,,3/6,,1/8,1>7[2:7]/8<2[2:7],,,,,,,,,,,,,,,,,,,,,,,,,,,,,,,,,,B3/B6/C,
&inote_5=(130){2}
8<5[4:1],1>4[4:1],{4}6,4,2v3-5[4:1],5,6h[4:1],8h[4:1],1h[4:1],3q5<2[4:3],Cf,,,5x,
{8}46,7,35,2,46,7,35,2,56,7,34,2,56,7,3/4<7[8:1],2,2/4qq1[8:3],,6,,
7,7,6,6,15,3,4/8V26-4[8:3],7,3x,3x,3x,,
4x/6x,7,35,2,46,7,3/5<8[8:1],4,{4}5>2[8:1],57,53,
{8}4-8[8:1]/3,2,{4}1-5[8:1],7p3[8:1],2q6[8:1],8<1[8:3],Cf,,
{8},8x/1x,8x/1x,27,6,74,3,25,6,47,3>7b[4:1],6,7<3b[4:1],,C,,8,,
21,38,47,,3,25,6,47,3,24,5,46,7z3[4:1],7,3,2x,1x,1x,6,47,3,25,6,47,3,25,
{4}6-2[8:1],4-8[8:1],7,2-5[8:1]/8-6[8:1],28,1-3[8:1]/7-4[8:1],17,
8-6[8:1]/1-5[8:1],8-4[8:1]/1-3[8:1],81,{8}8x/1x,2x/7x,3x>1[8:1]/6x<8[8:1],5x/4x,3x/6x,,
81,6,4,2,{4}1-4[8:1],1-6[8:1],1>4[8:1],1<6[8:1],1,37,
{8}8,2,4,6,{4}8v5[8:1],8v3[8:1],8<5[8:1],8>3[8:1],8,26,
{8}1,7,5,3,{4}1-3[8:1],1-7[8:1],1-4[8:1],1-6[8:1],1-5[8:1],1/7h[4:1],
{8}5,5,4,4,{4}3V51-7[2:1],6,6,6,
{8}57,6,5/3h[4:1],,{16}4,4,,25,,6,6,,{8}47,56,4/7h[4:1],,{16}5,5,,48,,3,3,,
{8}26,5,53,53,{16}6,4,,3/7pp5[16:5],{4},,
4,{8}6<2[4:1],6,2<6[4:1],3,4,4,3V52[4:1],3,8,8h[4:1],,1,
{16}3,4,,6,{8}5,47,47,3,26,7,84,{16}7,5,6,,2,4,3,,2,1,,7,{8}8,6-8[8:1]/5-1[8:1],47,,,
8x/1x,2,43,5,6>3[8:1],6,1,8w4[8:1],{2},
{16}24,,6,5,{8}7,81,2-4<5-7[4:1],2,7,,8,8,57,
{16}3,4,2,,6,5,{8}7v6-4[4:1],8,1x,2x,{4}3V17pp2[2:3],5h[4:1],,5,4h[4:1],,4,E5,
6V82qq5[2:3],3h[4:1],,3,4h[4:1],,4,E4,3V17pp4[2:3],5h[4:1],,5,6h[4:1],,6,E7,
6h[4:3],4,,4,
4-8[8:1]/7,{16}5,5,,3,,1,{8}1,24,3,2/5-1[8:1],,{16}4,4,,6,,8,
{8}8,57,6,4-8[8:1]/7,,{16}5,5,,3,,1,{8}1,24,5,46,7,{16}7,1,,2b/6b,{2},
{4}3h[8:1]/5h[8:1],3h[8:1]/5h[8:1],4h[8:1]/6h[8:1],4h[8:1]/6h[8:1],
3h[8:1]/5h[8:1],3h[8:1]/5h[8:1],4h[8:1]/6h[8:1],4h[8:1]/6h[8:1],
3h[8:1]/5h[8:1],3h[8:1]/4h[8:1],4h[8:1]/6h[8:1],5h[8:1]/6h[8:1],
3-1[8:1]/5h[8:1],5h[8:1],4h[8:1]/6<8[8:1],4h[8:1],
3h[8:1]/5h[8:1],3h[8:1]/5h[8:1],4h[8:1]/6h[8:1],4h[8:1]/6h[8:1],
3h[8:1]/5h[8:1],3h[8:1]/4h[8:1],4h[8:1]/6h[8:1],65,
{12}6,5,4,5,4,3,6,5,4,5<4b[2:1],4,3,{4}2h[2:1],,,
1>5[8:1]/7,1b/6b,{16}8<4[8:1],,,4,{8}4,3,2-7[8:1],1,{4}8-4[8:1],5-1[8:1],7h[4:1],
{8}8,16,2/5>3q7[8:3],,3,{16},1,{8}1,2,3/8<5[8:1],1,8>3[8:1]/4,,8/7z3[4:1],,
3,2x,1x>5[8:1],1x,16,,
8h[16:3],{16},5,{8}5,4,3-7[8:1],4,{4}5-8[8:1],2>5[8:1],7h[4:1],
{8}4,36,{4}2v5[8:1]/5,4-7[8:1]*-1[8:1],4-8[8:1],4p5b[8:3]*>5b[8:3],,,
{8},37,{24}8<4[8:1],,,2x,1x,2x,{4}8x,
{16}1>5[8:1],,,5,{8}5,6,7>3b[4:1],4,{4}3<7b[4:1],C,2h[4:1],
{8}1,38,4V62[4:1]/7,,6,{16},8,{8}8,7,6/1>4[8:1],8,{4}1<6[8:1]/5,1/3z7[4:1],
{8}7,8x,8x<4[8:1],8x,38,,1h[16:3],{16},4,
{8}4,5,6-2[8:1],5,{4}4-8[8:1],7<4[8:1],1,
3x-8[8:1]/5x-7[8:1],35,4-2[8:1]/6-1[8:1],46,
5-7[8:1]/4-8[8:1],5-1[8:1]/4-2[8:1],54,
{8}4x/3x,4x/3x,2x/1x,7x/8x,65,8,43,1,46,8,35,1,65,8,43,1,
7<4[8:1]/5,3,2q6[8:1],,7h[4:1],,8,8,65,{16}2,4,3,,7,5,6,,2,1,3,,7,8,{8}6,
65,47,47,{8}6/5h[4:1],8,6h[4:1],8,4h[4:1],8,5h[4:1],1,3h[4:1],1,4h[4:1],1,
{4}3-6-2[4:1],7,{8}8,8,2,{16}2,1,,1,3,,43,,25,,25,,1,4,3,,8,5,6,,1,,
{24}E2,E3,E4,E8,E7,E6,{1}1b>2z6>5s1[4:13],,,,C/E5/B4/B5,
