&title=my flow
&artist=crayvxn
&first=1.55
&des=
&des_5=サファ太
&lv_5=13+
&inote_5=(157)
{1}Chf[1:1]/D3/A2/A3/E3,
1bp8-6>3[4:7],,
{4}7h[8:11],,,{8}1,1,{4}1h[8:3],,,2/6,
4,{16}3h[16:3]/5,,,4h[16:3],,,2,,3/5,,,,5,,5,,6h[16:3]/4,,,5h[16:3],,,7,,6/4,,,,
3,,3,,2h[16:3]/4,,,5h[16:3],,,4,,3p6[4:2]/4,,,,{4}E5f/B4/B5,,,8<5[4:3],
B5f,E4,E3,1>4[4:3],B4,E6,E7,8<5[4:3],
B5,E4,E3,1h[4:2],B3/B4/E4,8h[4:2],B5/B6/E6,3,
{8}2/5,3,3/7,6,3/5,4,4/8,7,2/6,3,3/7,6,3/5,4,4/7,6,
2/5,2,7,7,{16}1,8,1,8,1-5[8:1],8,1,,{1}7bhx[4:5],
{8}5hx[4:1],,,4h[4:1]/5h[4:1],,,{4}2h[4:6]/4v2<7-5-3[4:3],,,,,
{8}4bxh[4:1],,,2/4,,{16}5,5,{4}4v2<7qq5b[4:3],7h[4:3],,,,
5/7-4[4:1],4-1[4:1],1-6[4:1],6-3[4:1],3-8[4:1],8-5[4:1],5,8x,
{16}1,7,1,7,2,6,2,6,3,5,4,6,2,5,4,7,{4}1bh[4:2],,8>3[8:1],4-1[8:1],
4x/5x,{16}2xh[16:3]/8x,,,7,5,6h[8:1],,3,4,2h[8:1],,5,4,7h[8:1],,5,6,1h[8:1],,4,3,7h[8:1],,5,5-8[8:1],,4,,
5x/3x,,,,{16}1xh[16:3]/7x,,,4,3,7h[8:1],,5,6,2h[8:1],,4,3,8h[8:1],,4,6,1h[8:1],,5,3,7h[8:1],,1b,1b,,2b/8b,,
7,5,6,4,5,2,5,2,4-8[8:1],3,5,2,4,,,,1,7,2,6,2,5,3,6,{8}4-8[8:1],3/5,4/2b-6-3-5-1b[4:3],,
{1}8xh[4:3],{16}8,,1/7,,2h[16:3]/6,,,4h[16:3],,,6h[16:3],,,5,5,,
{4}3bhx[4:1]/7bx,{24}A6f,E6f,E5f,{8}A4f,1bxs5[4:1]/2bx,,,,{16},1bx,,2bx/8bx,2bx/8bx,,3bx/7bx,,{4}4bxqq4[8:3]/6bx,7<4[8:1],
7x,{16}2x/5hx[16:3],,,3,4,1h[8:1],,6,5,7h[8:1],,4,5,1h[8:1],,4,2,8h[8:1],,5,6,2h[8:1],,1b,3b/8b,,,,
4/6,4,7,,2h[8:1]/5,,7,,4/6,4,7,,1h[8:1]/5,,7,,4/6,4,7,,2h[8:1]/5,,6,,{8}3-5[8:1]/5,2/6,3/5,,
{16}7b,4,7,4,6,3,5,2,4,1,4,1,{32}E5,E6,E7,E8,E1,E2,E3,E4,{4}E5/Ch[4:2],,{8}8-4[8:1],7,{4}8x/2bq3<1b[4:8],
{1},,
{4}5h[4:3],,,3h[4:1],{8}4h[8:3],,,5h[8:3],,,{4}6>8[4:3],
E5/B4/B5,,,5>7[4:3],E6/B6/B5,,,
4>6[4:3],E7/B7/B6,,,3pp6[4:3],7h[4:3],,,,
{8}8,8,1h[8:3]/7,,,4,3/5,,1,1,8h[8:3]/2,,,5,6/4,,
8,8,1h[8:3]/7,,,4,3/5,,2,2,3h[8:3]/1,,,6,{4}7<4[4:1]/5,
3,2-5[4:1],5,6<1[4:1],5,3-8[4:1],4,6h[4:1],
{8}1,1,8,8,2/7,3/6,{16}4>5[4:3],5,4,5,{1}Cf,
{8}4-2[8:1],4,7-5[8:1],7,4-2[8:1],4,6<2<6[4:2],6,2x,,4x,,3h[4:1],,5,6,
7-5[8:1],7,4-2[8:1],4,7-5[8:1],7,3>7>3[4:2],3,7x,,5x,,{4}Ch[4:1],2>4[8:1],
2/8,6<8[8:1],4/6,3-5[8:1],3/7-3[8:1],1/7,2/4,4h[8:1]/5h[8:1],
{16}3,3,5,5,4,4,6,6,2,2,4,4,5,5,7,7,{8}Ch[4:2],,,1,{4}8-4[8:1],1/8,
3-5-2-6-1[4:3]/5bh[16:15],,,,{16}6hx[4:3],,,,E2/A1/A2/B1/B2,,,E8/A8/A7/B8/B7,,,5,,{4}5w1b[8:1],
5x,{16}3/7,,,6,5,8-6[8:1],,3,3,8-2[8:1],,5,5,8-4[8:1],,4,4,8,,3,3,,2x/4x,,1b/5b,,1b/5b,,
2,4,3,5,4,6,3,7,5-1[8:1],6,4,7,5,,,,8,2,7,3,5,3,6,2,{8}5-1[8:1],6/4,5/7b-3-6-4-8b[4:3],,
{1}1xh[4:3],{16}1,7,1,7,1,7,1,7,{32}2,3,4,5,6,7,8,1,{4}2bh[4:1]/6bv1b[8:1],
{4}6x,{24}A3f,E4f,E5f,{8}A5f,8bz4b[4:1]/7b,,,,{16},8b,,7b/1b,7b/1b,,6b/2b,,{4}5bpp5[8:3]/3b,2>5b[8:1],
2x,{16}4/7,,,3,4,2-8[8:1],,6,6,2-4[8:1],,5,5,2-6[8:1],,1,1,2,,8,8v3b[8:1]*v5b[8:1],,1/7,,8b,,,,
2/6,6,1,,7h[8:1]/4,,2,,5/3,5,2,,6h[8:1]/4,,2,,5/3,5,2,,8h[8:1]/4,,2,,{8}7-4[8:1]/4,3/8,7/4,,
{16}2,1,2,1,3,8,3,8,{32}4,5,6,7,8,1,2,3,4,5,6,7,8,1,2,3,{4}4qq1[8:3]/8qq5[8:3],,,2-7b[8:1]/6-3b[8:1],
2b/6b,
