&title=WE'RE BACK!!
&artist=Zekk
&first=-0.05
&des=
&lv_2=4
&lv_3=8
&lv_4=12
&lv_5=14
&inote_2=(185)
{1},
{1}1x/8x,
{2}1,1,
{1}2,
{2}3,3,
{1}4/5,
{2}5,5,
{2}6,6,
{1}7,
{1}1bx/8bx,
{2}8,8,
{2}7,7,
{2}6,6,
{1}4/5,
{2}4,4,
{2}3,3,
{2}2,2,
{1}1/8,
{1}1h[1:1]/2h[1:1],
{1},
{1}3h[1:1]/4h[1:1],
{1},
{1}5h[1:1]/6h[1:1],
{1},
{1}7h[1:1]/8h[1:1],
{1},
{1}1x-5[4:3],
{1},
{1}8-4[4:3],
{1},
{1}2-6[4:3],
{1},
{2}8,8,
{1}1b/8b,
{4}8,8,8,,
{2}7,7,
{2}6,6,
{1}4x/5x,
{4}4,4,4,,
{2}3,3,
{2}2,2,
{1}1x/8x,
{4}1,1,1,,
{2}2,2,
{4}3,3,3,,
{2}4,4/5,
{4}5,5,5,,
{2}6,6,
{4}7,7,7,,
{1}1bx/8bx,
{2}7,7,
{2}7/8,7x/8x,
{2}6,6,
{2}5/6,5/6,
{2}4,4,
{2}3/4,3/4,
{2}2,2,
{1}1b/2b,
{1}B1,
{1}B8,
{1}B2,
{1}B7,
{1}B3,
{1}B6,
{1}B4,
{1}C1,
{1}8-3[4:3],
{1},
{1}2-5[4:3],
{1},
{1}6-2[4:3],
{1},
{2}1,1,
{1}1b/8b,
{4}1,1,1,,
{4}2,2,2,,
{4}3,3,3,,
{2}4/5,4/5,
{4}5,5,5,,
{4}6,6,6,,
{4}7,7,7,,
{2}1x/8x,1x/8x,
{4}8b,8,8,,
{4}7,7,7/8,,
{4}6,6,6,,
{4}5,5,4/5,,
{4}4,4,4,,
{4}3,3,3/4,,
{4}2,2,2,,
{1}1h[2:1]/8h[2:1],
{1}1b/8b,
{2}1,2,
{1}3h[2:1],
{2}3/4,3/4,
{2}5,6,
{1}7h[2:1]/8h[2:1],
{2}7/8,7/8,
{1}1b,
{1}B1/B8,
{1}B2/B7,
{1}B3/B6,
{1}C1fh[1:1]/B4/B5,
{1},
{1},
{1},
E
&inote_3=(185)
{1},,
{4}2,2,2,,
{4}3,3,3,,
{4}4,4,4,,
{1}5/6,
{4}7,7,7,,
{4}6,6,6,,
{4}5,5,5,,
{1}3/4,
{4}3,3,3/4,,
{4}2,2,1/2,,
{4}8,8,7/8,,
{4}5/6,5/6,5/6,,
{4}6,6,5/6,,
{4}7,7,7/8,,
{4}1,1,1/2,,
{1}3x/4x,
{2}3h[2:1],4h[2:1],
{2}5h[2:1],6,
{2}6h[2:1],5h[2:1],
{2}4h[2:1],3,
{2}2h[2:1],3h[2:1],
{2}4h[2:1],5,
{2}7h[2:1],6h[2:1],
{2}5h[2:1],4,
{2}2h[2:1],1,
{4}2,2,1/2,,
{2}7h[2:1],8,
{4}7,7,7/8,,
{2}6h[2:1],5,
{2}3h[2:1],4,
{4}5,5,4,4,
{1}4b/5b,
{4}3,3,2,2,
{4}1,1,7/8,,
{4}6,6,7,7,
{4}8,8,1/2,,
{4}2,2,3,3,
{4}4,4,5/6,,
{4}7,7,6,6,
{1}4x/5x,
{4}6,6,7/8,7/8,
{4}1,1,1/2,,
{4}3,3,1/2,1/2,
{4}8,8,7/8,,
{4}7,7,5/6,5/6,
{4}4,4,3/4,,
{4}2,2,3,3,
{1}4x/5x,
{4}B7,B6,B5,,
{4}B2,B3,B4,,
{4}B7,B6,B5,B4,
{4}B3,B2,B1/B8,,
{4}B5,B6,B7,,
{4}B4,B3,B2,,
{4}B6,B7,B8,B1,
{4}B2,B3,B4/B5,,
{1}7<4[2:1],
{1}3>8[2:1],
{1}7-3[2:1],
{4}2,2,1/2,,
{1}2>5[2:1],
{1}6<1[2:1],
{1}2-6[2:1],
{1}7x/8x,
{4}7,7,7,,
{4}6,6,6,,
{4}5,5,5,,
{1}3/4,
{4}2,2,2,,
{4}3,3,3,,
{4}4,4,4,,
{1}5b/6b,
{4}6,6,7/8,7/8,
{4}1,2,3/4,3/4,
{4}2,1,7/8,7/8,
{4}6,6,4/5,,
{4}3,3,1/2,1/2,
{4}8,7,5/6,5/6,
{4}7,8,1/2,1/2,
{4}3,3,4/5,,
{8}3,3,3,,1/2,,1/2,,
{8}8,8,8,,7/8,,,,
{8}6,6,6,,7/8,,7/8,,
{8}1,1,1,,1/2,,,,
{8}2,2,2,,3/4,,3/4,,
{8}5,5,5,,5/6,,,,
{8}7,7,7,,6,6,6,,
{1}4bx/5bx,
{4}4,3,2,1,
{4}8,7,5/6,,
{4}5,6,7,8,
{4}1,2,3/4,,
{4}4,3,2,1,
{4}8,7,6,5,
{4}4,3,2,1,
{1}1/8,
{2}5/7,5/7,
{2}2/4,2/4,
{2}3/6,3/6,
{4}1/8,1/8,2/7,2bx/7bx,
{1},
{1},
{1},
E
&inote_4=(185)
{1},
{4}1s5[4:1],,,3bx/7bx,
{4}2,2,1h[4:1]/3h[4:1],,
{4}7,7,6h[4:1]/8h[4:1],,
{4}5,5,4h[4:1]/6h[4:1],,
{4}3x/5x,6x/4x-1[8:1],5-8[8:1],,
{8}1,,2/8,,7,5,6,,
{8}4,,3/5,,2,4,1,,
{8}E2,E3,E4,E5,E6,E7,E8,,
{4}1V38[4:1]/7V58[4:1],,,1b/7b,
{8}7/8,,1/6,,2/8,,3,1,
{8}2,,3/8,,1/7,,6,8,
{8}7,,1/6,,2,2,6,6,
{4}4,3/5-8[8:1],4-1[8:1],,
{8}7x,7x,7x/8x,,2/8,,3,1,
{8}2,,3/8,,1/7,,6,8,
{4}7/8,1/2,3/4,5/6,
{4}7/8w4[4:1],,,3bx/5bx,
{8}3h[8:7],,5,,4,,4,4h[8:3],
{8},2,2h[4:1],,3,,2/4,,
{8}6h[8:7],,4,,5,,5,5h[8:3],
{8},7,7h[4:1],,6,,5/7,,
{8}3h[8:7],,1,,2,,4,4h[8:5],
{8},5,5,,3,,2/4,,
{8}6h[8:7],,8,,7,,5,5h[8:5],
{8},4,4,,6,,8b,,
{4}1h[1:2],8,8,2,
{4}7,3,6,4,
{4}5h[2:3],1,8,2,
{4}7,3,6,4/5,
{8}3h[8:3],,1,1,,2/8,2/8,,
{8}6h[8:3],,8,8,,1/7,1/7,,
{1}C1h[4:3],
{4}2xV41[4:1]/8xV61[4:1],,,2b/8b,
{4}1/8,5/7,3/4,1/2,
{4}6/7,3/4,1/8,5/6,
{16}1<6[8:1]/2>5[8:1],,,,,,,,5x/6x,,,3x/4x,,,1x/8x,,
{4}1x/8x,7/4-1[8:1],5-8[8:1],,
{4}1/2,4/6,3/4,2/5,
{4}7/8,3/5,5/6,4/7,
{8}3,3,1,1,8,8,6,6,
{4}1-7[8:1]-3[4:1]-5[8:1],,,6b,
{16}6h[8:1]/8h[8:1],,,,1h[8:1]/2h[8:1],,,,1/3,,,1/3,,,1/3,,
{16}1h[8:1]/3h[8:1],,,,7h[8:1]/8h[8:1],,,,6/8,,,6/8,,,6/8,,
{16}6h[8:1]/8h[8:1],,,,4h[8:1]/5h[8:1],,,,3/6,,,2/7,,,1/8,,
{4}8/1-5[8:1],6-8[8:1],3-1[8:1],,
{8}5,5,6,6,7,7,7/8,,
{8}4,4,3,3,2,2,1/2,,
{16}2/7,,2/7,,2/7,,2/7,,8,1,8,1,8,1,8,1,
{4}8w4b[4:1],,,3b/5b,
{8}3-1[8:1]/5-1[8:1],,,,2,2,1,1,
{2}3-8[8:1]/8-4[8:1],1b/5b,
{16}7,8,7,,2,1,2,,7,8,7,,2,1,2,,
{12}8x,8x,8x,1x,1x,1x,8x,,,2b/7b,,,
{8}4-8[8:1]/6-8[8:1],,,,7,7,8,8,
{2}1-5[8:1]/6-1[8:1],4b/8b,
{8}4-2[8:1],4,5-1[8:1],5,4-8[8:1],4,5<4[2:1],5,
{4},,,1b,
{1}2h[1:2],
{2}E2,E4,
{2}6h[1:2],E8,
{2}E7,E6,
{4}3h[1:1],,4,5,
{4}6h[4:3],,5,4qq8[1:1],
{1},
{2},4/5h[4:9],
{4}B5,B6,B7,B8,
{4}B1,B2,B3,4xh[4:7],
{4}E5,E4,E3,E2,
{4}E1,E8,E7,4/5,
{8}2,2,4,4,3,3,3/4,,
{8}6,6,5,5,7,7,7/8,,
{16}1,8,1,8,1,8,1,8,1,8,1,8,1,,,,
{4}1V38[4:1]/7V58[4:1],,,1b/7b,
{4}1/8,4/6,2/3,1/7,
{8}5/6,,1/2,,3/4,,7/8,7/8,
{2}7-4[8:1]/8-3[8:1],1-6[8:1]/2-5[8:1],
{4}4/7,3/5-1[8:1],4-8[8:1],7,
{4}1/7,2/4,5/6,1/7,
{4}3/4,1/8,5/7,2/4>5[4:3],
{1},
{4}1xh[2:1]/8xh[2:1],,,3b/6b,
{8}4/5,3/6,2/7,,7/8,,3/5,,
{8}1/2,,5/6,,7/8,,3/4,3/4,
{2}3-8[8:1]/4-7[8:1],5-2[8:1]/6-1[8:1],
{4}3/8,7/4-8[8:1],5-1[8:1],2,
{8}3,3,1,1,8,8,6,6,
{8}5,5,3,3,2,2,8pp4[4:3]*qq4[4:3],,
{1},
{4}3h[2:1]/5h[2:1],,,1b/7b,
{4}8p4[4:1]*q4[4:1],,,3bx/5bx,
{16}6,,7,,2,,1,,7,8,7,8,7,,,,
{16}3,,2,,7,,8,,2,1,2,1,2,,,,
{4}3-8[8:1],6-2[8:1],4-1[8:1],8,
{16}7,,6,,3,,4,,6,5,6,5,6,,,,
{16}2,,3,,6,,5,,3,4,3,4,3,,,,
{16}1,8,1,8,1,8,1,8,2,7,2,7,2,7,2,7,
{4}1q4b[2:1],,,5b,
{1}5xh[4:3]/7xh[4:3],
{1}2xh[4:3]/4xh[4:3],
{16}3/7,,3/7,,3/7,,3/7,,2,8,2,8,2,8,2,8,
{4}1pp3[4:1]*qq7[4:1],,,5w1[8:1],
{1},
{1},
{1},
E
&inote_5=(185)
{1},
{16}3/4,,3,,5/6,,6,,1,8,1,,2/7,,,,
{4}3/5,4/6,5/7,E8/A8,
{4}4/6,3/5,2/4,A1/E2,
{4}2/5,3/6,4/7,E1/D1,
{8}5/7,6,3/5,4,6/5-1[8:1],,5/7,,
{8}8,8,7,7,6,6,5,5,
{8}4,4,3,3,2,2,1,1,
{8}7,7,5,5,3,3,1,1,
{16}7,8,7,8,7,,1/6,,6/1p5[8:1]*q5[8:1],,,,1b,,,,
{8}2h[8:1]/8h[8:1],,3h[8:1]/4h[8:1],,5h[8:1]/6h[8:1],,6,5,
{8}3h[8:1]/4h[8:1],,2h[8:1]/3h[8:1],,1h[8:1]/2h[8:1],,3,4,
{8}5h[8:1]/6h[8:1],,7h[8:1]/8h[8:1],,1/2,3,4/5,6,
{4}7h[8:1]/8h[8:1],6h[8:1]/7h[8:1],5h[8:1]/6h[8:1],4b/5b,
{8}4h[8:1]/6h[8:1],,1h[8:1]/2h[8:1],,7h[8:1]/8h[8:1],,7,8,
{8}1h[8:1]/2h[8:1],,2h[8:1]/3h[8:1],,3h[8:1]/4h[8:1],,5,5,
{4}4h[8:1]/6h[8:1],2h[8:1]/4h[8:1],2h[8:1]/8h[8:1],6h[8:1]/8h[8:1],
{1}4qq1[2:1]/6pp1[2:1],
{1}8/2pp5[2:1],
{4}4/7h[4:3],B5/A5,E7/D7,B8/A8,
{1}1/7qq4[2:1],
{4}2h[4:3]/5,E4/D4,E3/D3,E2/D2,
{1}8/3pp8[2:1],
{4}1/7h[4:3],B8/A8,E7/D7,B5/A5,
{1}1q4[2:1]/7p4[2:1],
{4}2h[2:1]/5,3,C1f,,
{8}6h[4:1],,5,,,7,5/7,,
{8}7h[4:1],,5,,,6,5/6,,
{8}3h[4:1],,4,,,2,2/4,,
{8}2h[4:1],,4,,,3,2/4,,
{8}2/4,3,3,3,5/7,6,6,6,
{8}1/4,2,3,4,5/8,7,6,5,
{8}4,4,3/5,3/5,2/6,2/6,1/7,1/7,
{16}8,8,8,8,8,,1/7,,2-5[8:1]/6-1[8:1],,,,2x/6x,,,,
{8}3/4,2,5/6,7,1/2,3,7/8,6,
{16}1/5,,2<4[4:1],4,3,,2/8,,,,8x,,7,,6,,
{16}4/5,,3,,1/2,,8,,3/7,,6,5,,3,4,,
{8}7-4[8:1],4,7-1[8:1],2,7-3[8:1],5,7b,,
{16}2/5,,3,4,3,,6,6,5,,3,4,2,5,1,,
{8}6/8-4[8:1],2-6[8:1],8b,2b,,7,4/6,3/5,
{16}2/4,,1,,5/7,,8,,2,1,3,8,4,7,5,6,
{8}5-3[8:1],5,7-1[8:1],7,6-2[8:1],6,7b,,
{16}1q5[8:1],,8,,1/7-3[8:1],,,,7,,,4h[16:3],,,8,,
{16}3/7V53[16:3],,2,,7/1-5[8:1],,,,1,,,4h[16:3],,,1,,
{16}6/2V46[16:3],,7,,2/8-4[8:1],,,,8,,,5h[16:3],,,8,,
{16}3/7,,2/6,,1,8,,,7/4-8[8:1],,3,5,4b,,,,
{8}1/7-4[8:1],2,7/3-8[8:1],,3/5-1[8:1],,1/5,,
{16}2/8,,3/7,,6pp4[8:3],5,6,,,,4,,3,,2,,
{16}1/5,,6,,4/7,,3,,8b,2,7,2,6,2,5,2q3[16:5],
{8}4,,5,6,7,,4b/8b,,
{16}2h[8:1]/4h[8:1],,,,5h[8:1]/7h[8:1],,,,2h[8:1]/8h[8:1],,,4h[8:1]/6h[8:1],,,3/7,,
{8}7/3-1[8:1],,3/8V62[4:1],,1x,3,5,,
{16}3/8,,2,1,,4,5,,1/6,,7,8,,5,4,,
{12}3/7,3/7,3/7,2/6,2/6,2/6,2-4[8:1]/6-8[8:1],,,,,,
{16}5h[8:1]/7h[8:1],,,,2h[8:1]/4h[8:1],,,,1h[8:1]/7h[8:1],,,4h[8:1]/6h[8:1],,,3/7,,
{4}1>4[8:1]/5<8[8:1],1-6[8:1]/5-2[8:1],1/5,,
{16}2/6,,3,4,,2,1,,2/8,,6,5,,7,8,,
{16}7/1-5[8:1],,2,,1/3,,,,3,4,2,,1b/7b,,,,
{1}5/4>5[4:7],
{1},
{1}4>5b[4:7],
{1},
{1}4>8[2:1],
{1}7<3[2:1],
{1}2qq5[4:3],
{8}B6,E6,B3,E4,E8,E2,E1,,
{4}5/3V17[2:1],5,5,5,
{4}6/8V24b[2:1],6,6,6,
{4}5/4>6[2:1],5,5,5,
{4}4/5V71b[16:5]-3[16:3],4,4,4,
{8}4/8,8,4/7,7,4/6,6,4/5,5,
{8}4/5,4,3/5,3,2/5,2,1/5,1,
{16}1,8,2,7,3,6,4,5,4,5,3,6,2,7,1,8,
{16}1-3[8:1],1,1-7[8:1],1,1-5b[8:1],,,,,,,,3b-8[8:1]/7b-4[8:1],,,,
{16}3/7,,,,1/5,,3,4,2,,6,5,7,4,8,,
{8}3-5[8:1]/7-1[8:1],,7/3V15[4:1],,3/6,,6,7,
{16}4/8,,6,5,7,,3,4,2,5,1,,2/6,,3/7,,
{4}4p8[8:1]/8p4[8:1],4<7[8:1]/8>3[8:1],4x/8x,2b/6b,
{8}6/4p8[8:1],3,4/7v4[8:1],6,7/3>8[8:1],2,3/5,5,
{16}6,,7/8,,2/5,,3-8[8:1],4,,5,3,,7,,1/6V85[8:3],,
{4}6/1-4[4:1],,,4/5,
{16}4/5,,2,4,,7,5,,1,8,1,,3b/6b,,,,
{8}3/5,7/8,6/1-5[8:1],4-7[8:1],1,4,2<8[8:1],8,
{8}2>4[8:1]/6<8[8:1],,6/2V84[4:1],,2/6,,7,6,
{8}5,1/2,3/8-4[8:1],5-2[8:1],8,5,7>1[8:1],1,
{4}3>1[8:1]/7<5[8:1],3/7-2b[8:1],4b/7b-4[8:1],1b/7b,
{8}3/4x,8,5/6,1,3/4,8,5/7,3,
{8}2/4-8[8:1],5,4/1-6[8:1],2,1/4q8[8:1],5,3/4,2,
{4}1h[8:1]/7xqq1[2:1],2h[8:1],3h[8:1],4h[8:1],
{16}4/5,,3,4,,6,5,,3,4,,1/8,2/7,,,,
{16}3/6,,4,5,4,5,4,5,4,5,6,7,4b/8b,,,,
{16}2/6,,7,8,6,1,5,2,4h[8:1],,3,4,,6,5,,
{16}2,1,2,1,3,8,3,8,3,4,5,6,7,8,1,2,
{8}3/7,3/7,2-4[8:1]/6-8[8:1],,2/6,,3/7,,
{16}2/6,,1,5,2,6,3,7,4,3,2,1,7h[8:1]/8h[8:1],,,,
{16}2/6,,7,8,6,8,5,8,4,3,2,1,8,7,2/6,,
{16}1/5,2,3,4,5,6,7,8,1,2,8,7,2,3,7,6,
{4}4-2[8:1]/5-7[8:1],4-8[8:1]/5-1[8:1],4/5,3b/6b,
{16}2h[4:3]/4,,,,4,,,,5,,,,5,,6,6,
{4}5/7h[4:3],5,4,3,
{16}2/5,,7,8,7,,2,1,3,8,4,7,5,6,5,,
{16}4/7,,3,4,3,,6/8,,1,5,1,5,2-5[8:1]-2[8:1]/6-1[8:1]-6[8:1],,,,
{1}2/6,
{1},
{1},
E
