&title=PUPA
&artist=モリモリあつし
&first=0
&des=
&des_4=鳩ホルダー
&des_5=じゃこレモン
&lv_4=12+
&lv_5=14
&inote_4=(202)
{1}
,
{8}
,,3/5,,,3/5,,,3h[1:1]/5h[8:9],,,,,,,,,,4/6,,,4/6,,,4h[1:1]/6h[8:9],,,,,,,,,,1/7,,,1/7,,,1h[8:9]/7h[1:1],,,,,,,,,,2/8,,,2/8,,,1s5[2:1]b/8,,,,,,,,
{4}
4b/6b,
{8}
4/5,,3,3/5,,6,4/6,,3,3/5,,7,5/7,,2/6,,3/8,,7,7/8,,2,1/2,,1/8,1/8,,1b-5[8:1]/7b-4[8:1],,,,,4/5,,6,4/6,,3,3/5,,6,4/6,,2,2/4,,1/2,,8,7,6,5,4,3,2,1w5[8:3]b,,,,,,,3b/7b,,
8,8,1/8,,
{16}
2h[16:3],,,4h[16:3],,,3,,,,4/5,,4/5,,,,7h[16:3],,,5h[16:3],,,6,,,,4/5,,4/5,,,,2h[16:3],,,4h[16:3],,,3,,,,4/5,,4/5,,,,6xh[16:3],,,8x,,,
{8}
7x/8x,7x/8x,,1/2,1/2,,3/4,,5/6,5p4[2:1]/6h[4:3],,,,,,,,1/2,,7/8,7/8,,5/6,,3/4,3h[4:3]/4q5[2:1],,,,,,,,6,6,4/6,,
{16}
7h[16:3],,,5h[16:3],,,6,,,,4/5,,4/5,,,,2h[16:3],,,4h[16:3],,,3,,,,4/5,,4/5,,,,7h[16:3],,,5h[16:3],,,6,,,,4/5,,4/5,,,,3h[16:3],,,1,,,
{8}
1/2,1/2,,8,8,1,1,7,7,3,3,4,4,5,5,6,6,7/8,,1/2,1/2,,4/5,,7/8,7/8,1,2,3,4,5,6,7,
{1}
1h[2:3]/8pp4[4:5],,
{4}
7h[4:5]/8-5>4-1[1:1],,,,,,
{8}
8b,8b,
{4}
,3h[4:5]/7pp8-5[1:1],,,,,,1b,,4-8-6[4:3]/7h[4:5],,,,,,
{8}
1b/8b,1b/8b,,,
{16}
2h[16:3],,,3h[16:3],,,4,,5h[16:3],,,6h[16:3],,,7,,8h[16:3],,,1h[16:3],,,2,,2-5[8:1]*-6[8:1],,,,,,,,7h[16:3],,,6h[16:3],,,5,,4h[16:3],,,3h[16:3],,,2,,1h[16:3],,,8h[16:3],,,7,,7-2[8:1]*-4[8:1],,,,,,,,3h[16:3],,,4h[16:3],,,2,,8h[16:3],,,1h[16:3],,,7,,5h[16:3],,,6h[16:3],,,4,,4-2[8:1]*-7[8:1],,,,,,,,1,8,1,8,1,8,1,8,1,8,1,8,1,,2x/7x,,,,3/6,,3/6,,4/5,,4b-1[8:1]b/5b-8[8:1]b,,,,,,,,
{1}
2xh[1:7]/7x,E2,E3,E4,E5,E6,E7,8w4[2:1],
{4}
4bxh[4:7]/5bx,B6,B7,B8,A1,A8,A7,A6,5bxh[4:7],B3,B2,B1,A8,A1,A2,A3,
{8}
4,4,6,6,3,3,5,5,2,2,8,8,1,1,7,7,
{16}
1,8,1,8,1,8,1,8,2,7,2,7,2,7,2,7,
{4}
1h[4:1],8b,3b/4b,5b/6b,1b/8b,
{16}
2,,2,,1/3h[16:3],,,4h[16:3],,,5,,5-1[8:1]/6,,,,8,,,,3/4-8[8:1],,,,1,,,,1/7,,,,7,,7,,8/6h[16:3],,,5h[16:3],,,4,,3/4-8[8:1],,,,1,,,,5-1[8:1]/6,,,,8,,,,2/8,,,,3,,5,,
{4}
2-5[8:1]/6-1[8:1],,3-8[8:1]/7-4[8:1],,2-5[8:1]/6-1[8:1],,4/8,5/6,1/5,3/4,
{16}
3b/6b,,,2b/7b,,,1b/8b,,1b-4[8:1]/8b-5[8:1],,,,,,,,3/6,,,,3,,3,,2h[16:3]/4,,,1h[16:3],,,8,,7-4[8:1]/8-4[8:1],,,,,,,,2-5[8:1]/1-5[8:1],,,,,,,,4/6,,,,6,,6,,5/7h[16:3],,,8h[16:3],,,1,,1-4[8:1]/2-4[8:1],,,,,,,,8-5[8:1]/7-5[8:1],,,,,,,,
{12}
3x,4x,3x,4x,,,6x,5x,6x,5x,,,2x,1x,2x,1x,,,
{4}
1-4[8:1]/7-4[8:1],,
{16}
3,6,3,6,3,6,3,6,4,5,4,5,4,,,,3b/6b,,,2b/7b,,,1b/8b,,
{8}
1b-5[8:1]/8b-4[8:1],,,,3/6,,2,3/4,,7,5/6,,2,3/4,,7,5/6,,4/5,,B1,B2,B3,B4,B8,B7,B6,B5,E4,E3,E2,E1,E8,E7,E6,,1x/8x,,2,3/4,,7,5/6,,2,3/4,,7,5/6,,3/4,,A1,A2,A3,A4,A5,A6,A7,A8,1h[4:1],,8b,,3b/4b,,5b/6b,,
8-4[8:1],8,3-8[8:1],3,7,7,1/6,,2-5[8:1],2,6-1[8:1],6,2,2,3/8,,7-5[8:1],7,2-4[8:1],2,7,7,5/6,,
{12}
3x,3x,3x,2x/4x,,,6x,6x,6x,5x/7x,,,
{8}
2-6[8:1],2,7-3[8:1],7,1-5[8:1],1,8-4[8:1],8,3-7[8:1],3,6-2[8:1],6,4-1[8:1],4,8,8,
{16}
2,7,2,7,2,7,2,7,1,8,1,8,1,8,1,8,1,2,3,4,5,6,7,8,1,2,3,4,5,6,7,8,
{8}
1b,,,2/8,,,2h[1:1]/8h[8:9],,,,,,,,,,1/7,,,1/7,,,1h[1:1]/7h[8:9],,,,,,,,,,4/6,,,4/6,,,4h[8:9]/6h[1:1],,,,,,,,,,3/5,,,3/5,,,3b/5b,
&inote_5=(202.00)
{1},
{16},,,,47,,6,5,6,,37,,6,4,6,,
{1}2h[8:9]/7h[1:1],
{16},,,,25,,3,4,3,,26,,3,5,3,,
{1}2h[1:1]/7h[8:9],
{16},,,,37,,6,4,6,,27,,6,3,6,,
{1}1h[8:9]/7h[1:1],
{16},,,,26,,3,5,3,,27,,3,6,3,,
2/8h[8:7],,,,,,E5,E6,E7,E8,E1,E2,E3,E4,E5,,
{8}2b/7b,,5x-1[8:1],4,3,2x>6[4:1],,7,
7,8,8x-5[8:1],1,2,3x>7[4:1],,6,
6,5,5xv8[8:1],4,3,2x,{16}1,7,{8}1,
68,1,8b/2b,3b/1b-5[8:1],,8x/1x,
{16}8,7,6,5,4,
3,2,1,{8}8x/4x-8[8:1],,6,7x<3[4:1],,2,
2,1,1x-5[8:1],8,7,6x,,47,
38,12,{16}2,3,4,5,6,7,8,1,26,37,48,15,
2bx/6bx,,8bx<5[8:1]b/4bx,,,,{24}4,3,2,{12}1,,,2x,4x,3x,
7x,5x,6x,{8}4x/7x,{16}47,,6,5,,5,6,,3,
4,,4,3,,25,,25,,3,4,,4,3,,6,5,
,5,6,,47,,47,,6,5,,5,6,,3,4,
,4,3,,25,,25,,3,4,,4,2,,2,3,
,3,1,,{8}1/7h[8:3],,6,6h[4:1],,5h[8:3],
,4,4qq8[2:1],,,,,5,
6,7,6h[8:3],,7,7h[4:1],,8h[8:3],
,1,1>5[4:1],,,,{16}7x,7x,,8x,
8x,,6x/1x,,25,,34,,2,1,,3,4,,6,5,
,7,8,,16,,16,,7,8,,6,5,,3,4,
,2,1,,83,,83,,2,1,,3,4,,6,5,
,7,8,,16,,61,,7,8,,6,5x,5x,,7x,
{8}7x,1x,2h[8:3]/5,,3,3h[4:1],,4h[4:1],
,{16}5,4,5pp1[2:1],,3,,2,,1,,,,2,,
3,,4,,7x-3[8:1]/5x,,,,7x/2x,,1x-5[8:1],,,,1x/5x,,
,,4x/6x,,46,3,2,1,84,5,6,7,48,3,2,1,
84,5,6,7,{8}8x/4hx[8:3],,E5,6h[8:3],,E6,
4h[8:3],,E5,6h[8:3],,E6/B5,,,
,,3b/5bh[8:3],,E5,3h[8:3],,E4,
5h[8:3],,E5,3h[8:3],,E4,5b,6b,
,,6x/4hx[8:3],,E5,6h[8:3],,E6,
4h[8:3],,E5,6h[8:3],,E6,4bh[1:0],,
,,3b/5bh[8:3],,E5,3h[8:3],,E4,
5h[8:3],,E5,3h[8:3],,E4,5b,6b,
,,{16}7x/3xh[16:3],,,1-5[16:1],,,1,,4h[16:3],,
,6>3[16:1],,,6,,3h[16:3],,,2-7[16:1],,,2,,3h[16:3],,,4h[16:3],
,,5,,2/6h[16:3],,,8-4[16:1],,,8,,5h[16:3],,,3<6[16:1],
,,3,,8h[16:3],,,7-2[16:1],,,7,,6h[16:3],,,5h[16:3],
,,4,,7/3h[16:3],,,4-8[16:1],,,4,,1h[16:3],,,6<1[16:1],
,,6,,4h[16:3],,,2q6[16:1],,,2,,3h[16:3],,,5h[16:3],
,,4,,3,5,3,5,4,6,4,6,3,5,3,5,
3,,2bhx[8:1]/6bhx[8:1],,,,1b/7b,,1b/7b,,1b/7b,,8,8,8,,
{32}1b/7b,2,3,4,5,6,7,8,{1}1h[1:0],
{1}2h[1:0],
3h[1:0],
4h[1:0],
5h[1:0],
6h[1:0],
7h[1:0],
{8}2-6<8[4:1],1,8-4>2[4:1],,,,,,
4x/6hx[2:1],,4,3,{16}2h[16:3],,,3h[16:3],
,,4,,4h[16:3],,,3h[16:3],,,2,,2>4[8:1],,,,
,,5,6,7xh[8:3],,,,5,,4,,3h[16:3],,,4h[16:3],
,,5,,5h[16:3],,,4h[16:3],,,3,,3>1[8:1],,,,
,,4,5,6hx[8:7],,,,{8}5,5,5,5,
4x,{16}4,5,{8}3hx[8:7],,4,4,4,4,
5x,{16}5,4,{8}5x,3,45,6,45,56,
34,12,8-4[8:1]/7-5[8:1],,8b-2[8:1]/7b-3[8:1],,8b-4[8:1]/7b-5[8:1],,
8b/7b,,{16}1x/2x-6[8:1],,,,12,,8,,7<4[8:1]/5,,,4-8[8:1],7,
,8,,1V35[8:1],,,5-1[8:1],1,,8,,7<4[8:1],,,4-8[8:1],
7,,1,2,3x-7[8:1],,,,34,,5,,6<1[8:1]/8,,,1-5[8:1],
6,,5,,4V28[8:1],,,8-4[8:1],4,,5,,6<1[8:1],,,1-5[8:1],
6,,4,3,2x-6[8:1],,,,12,,8,,5/7<4[8:1],,,4-8[8:1],
7,,8,,1V35[8:1],,,5-1[8:1],1,,8,,7,,,82,,,
45,,36,,7,8,,4,5,,36,,2,1,
,5,4,,2x/6x,,,8x/4x,,,4x/5x,,1bx/8bx,,,,
{32}2bx,3,4,5,6,7,8,1,{16}2x/6x-2[8:1],,,,56,,4,,1/3>8[8:1],,,8-4[8:1],
3,,4,,5V71[8:1],,,1-5[8:1],5,,4,,3>8[8:1],,,8-4[8:1],
3,,5,6,7x-3[8:1],,,,78,,1,,2-5[8:1]/4,,,5,2,
,6,,7x/8x,,56,,43,,21,,7,8,,
6,5,,47,,{12}3b,3,3,2b,2,2,1b,1,1,
8b,8,8,7b,7,7,6b,6,6,{16}4,3,2,1,
4,5,6,7,3x,4,3,4,2,1,2,1,{32}4bx,,,,8,7,6,5,
3bx,,,,8,7,6,5,{16}2bx,,,37,,,45,,2xpp1[4:1]/6xpp5[4:1],,,,
2b/6b,,,,{8},,15,2x-4[8:1],,5,
6x-8[8:1],,1,2x-8[8:1],,7,6x-4[8:1],,
3,2,1x-5[4:1]b,,5<7[8:1]b,7x-3[4:1]b,,3>1[8:1]b,
1x-5[4:1]b,,5<7[8:1]b,7x-3[4:1]b,,3>1[8:1]b,1x,,
7x,,6x/3x-1[8:1],,8,7x-5[8:1],,4,
3x-1[8:1],,8,7x-5[8:1],,2,3x-5[8:1],,
6,7,8x-4[4:1]b,,4>2[8:1]b,2x-6[4:1]b,,6<8[8:1]b,
8x,,{24}1,2,3,{8}4,{4}8b-4[8:1],8bw4[8:1],
8b,{16}2x/6x,,8/7h[4:1],1,2,3,4,,6,4,6,4,
7,3,8,,1x/2x,,1/2h[4:1],8,7,6,5,,3,5,3,5,
2,6,1,,7x/8x,,7h[4:1]/8,1,2,3,4,,6,4,6,4,
6,4,5,,{12}3b,1,1,2b,8,8,1b,7,7,
8b,6,6,{16}5x/6x,,5/6h[4:1],4,3,2,1,,7,1,7,1,
6,2,5,,4x/3x,,3h[4:1]/4,5,6,7,8,,2,8,2,8,
3,7,4,,3x,4,3,4,2,1,2,1,{32}4bx,,,,8,7,6,5,
3bx,,,,8,7,6,5,{16}2,3,2,3,1,8,1,8,6,7,6,7,
1,8,2,7,3bx/6bx,,,,,,82,,,,,,
{1}4h[8:8]/6h[8:9],
{16},,,,37,,2,8,2,,36,,2,7,2,,
{1}5h[8:8]/3h[8:9],
{16},,,,26,,7,1,7,,36,,7,2,7,,
{1}4h[8:8]/6h[8:9],
{16},,,,37,,2,8,2,,36,,2-6[8:1],7-3[16:1],2,E
