&title=NOIZY BOUNCE
&artist=八王子P feat. ななひら・まめこ
&first=1.63
&des=
&des_4=鳩ホルダー
&des_5=はっぴー & サファ太
&lv_4=10
&lv_5=13
&inote_4=(150)
||
Started:
Friday,
October
27,
2023
at
6:26PM
||
Updated:
Sunday
October
30,
2023
at
4:01AM
||
Proofreading
status:
OK
-
2
||
Converted
by
PCIe
||
Batch
1
Proofread:
OK
{1}4bx>5[4:5],,5bx<4[4:5],,
{4}4,4,4,4,5,5,5,5,
{8}3x,3x,6x,6x,2x,2x,7x,7x,1x-5[8:2],,{4},,6b/4b,
2h[1:4]/5,5,4,4,6,6,3,3,7,7,1,1,8bx,5bx,1bx,4bx,
7h[4:7],4,5,5,3,3,6,6,8/7,8/7,2/1,2/1,8-4[4:1]/1-5[4:1],,,6b/3b,
2h[4:1]/1,5,7h[4:1]/8,4,1h[4:3]/2>7[4:2],,,,8h[1:1]/1,6,5,4,1h[4:3],3,4,5,
7h[4:1]/8,4,2h[4:1]/1,5,8h[4:3]/7<2[4:2],,,,8h[4:1]/1,7h[4:1],6,6/3,{16}5bx/4bx,,,5bx/4bx,,,5bx-8[8:1]/4bx-1[8:1],,
||
Batch
2
Proofread:
OK
{4},,E1,E2,B3/E3,,E1,E8,B6/E7,,A3,A2,A1,A8,A7,A6,A5/E5/A4,,
3h[8:1]/4,1,6h[8:1]/5,8,4/3,8/1,6/5,8/1,2h[4:1],4h[4:1],6h[4:1],8h[4:1],{1}Chf[1:1],{4},,,8b/1b,
||
Batch
3
Proofread:
OK
{4}4h[8:1]/3h[8:1],4h[8:1]/3h[8:1],5h[8:1]/6h[8:1],5h[8:1]/6h[8:1],8h[8:1]/7h[8:1],8h[8:1]/7h[8:1],1h[8:1]/2h[8:1],3hx[8:1]/1hx[8:1],
5h[8:1]/3h[8:1],5h[8:1]/3h[8:1],8h[8:1]/1h[8:1],8h[8:1]/1h[8:1],
6b/4b,8b/1b,5b/3b,8b/1b,7h[8:1]/6h[8:1],7h[8:1]/6h[8:1],5h[8:1]/4h[8:1],5h[8:1]/4h[8:1],3h[8:1]/2h[8:1],3h[8:1]/2h[8:1],8h[8:1]/1h[8:1],8hx[8:1]/7hx[8:1],7h[8:1]/5h[8:1],7h[8:1]/5h[8:1],2h[8:1]/4h[8:1],2h[8:1]/4h[8:1],8bq4b[4:1]/1bp5b[4:1],,,6b/3b,
||
Batch
4
Proofread:
OK
2,1,8/2,7/1,7,8,6/1,5/2,{16}4x/3x,,,4x/3x,,,4x/3x,,4x/3x,,,,{4}7/4,{16}5bx/6bx,,,5bx/6bx,,,5bx/6bx,,{4}5bx-8[8:1]/6bx,,
1,2/4,3,6/4,5,8/6,7,8/1,3,4/2,6,7/5p1[2:1],,,,8/1,8b/1b>8q2[4:11],{4},,,{1},,,
||
Batch
5
Proofread:
OK
8h[1:1],6h[1:1],4h[1:1],{4}2,,5h[1:1]/4,,E7,E1,4h[1:1],,B2/E3,B8/E1,5h[1:1],,A7/A6/E7/D7,A1/A8/E1/D1,4h[2:1],,2,1/3,8/4,7/5,
{22}7hx[22:4],,,,6hx[22:4],,,,5x,,,2hx[22:4],,,,3hx[22:4],,,,4x,,,5hx[22:4],,,,6hx[22:4],,,,7x,,,4hx[22:4],,,,3hx[22:4],,,,2x,,,7hx[22:4],,,,6hx[22:4],,,,5x,,,4hx[22:4],,,,3hx[22:4],,,,2x,,,{1}Chf[1:1],
||
Batch
6
Proofread:
OK
{4},,,8b/1b,4h[8:1]/3h[8:1],5h[8:1]/4h[8:1],{16}6/5,,,6/5,,,6/5,,{4}6h[8:1]/5h[8:1],8h[8:1]/7h[8:1],{16}2/1,,,2/1,,,2/1,,{4}2h[8:1]/1h[8:1],5h[8:1]/4h[8:1],{16}8/7,,,8/7,,,8/7,,{4}8b/7b,4b/3b,2b/1b,6b/5b,
8h[8:1]/7h[8:1],8h[8:1]/7h[8:1],{16}6/5,,,6/5,,,6/5,,{4}6h[8:1]/5h[8:1],4h[8:1]/3h[8:1],{16}2/1,,,2/1,,,2/1,,{8}2/1,8,7,6,5,4,3,2,{4}1p4b[4:1]/8q5b[4:1],,,6b/3b,
2h[1:4]/5,5,4,4,6,6,3,3,7,7,1,1,8b,5b,1b,4b,
7h[4:7],4,5,5,3,3,6,6,8/7,6/1,5/2,4/3,4w8b[4:1],,,Cf,
&inote_5=(150)
{8}6h[8:13]/3,,4,4h[4:1],,,4,,5,,4,4h[4:1],,,4/6,,
3h[4:3]/5,,4,4h[4:1],,,4-8-6-3[4:2],,{4}2h[4:3],,,{8}1,8x,
2/7-5[8:1],,4,3,2-4[8:1],,4,5,6-8[8:1],,5,4,3-1[8:1],,4,5,
6,6,2,2,{16}8,1,8,1,8-4[8:1],1,8,,{4}2bxh[4:3],,8x,5,
{4}4-2[8:1]/6,6,2x/5,{8}6,5,{4}6/4-8[8:1],6,1x/7,{8}5,4,
{4}3-5[8:1]/6,6,1x/6,3>7[4:1]/6,7>3[4:1],5,{8}6-4b[8:1],6,{4}3,
4x-7[8:1]/3,3,8x/4,{8}3,4,{4}2/5-1[8:1],2,{8}3,3,{4}3/4-8[8:1],
2-6[8:1],8x,1bx/7bx,3/7>5[4:2],E5f/B4/B5,,1x,2/8,
{16}7,5,,5,6,,{8}6,7/4,8,7/5,6,{16}3,4,,4,2,,{8}2,8,1,2h[4:1]/5,,
8,7<4[8:1],4,3>8[8:1],,4x,,7,1/7,2-6[8:1]/6-4[8:1],3,2/6,,8x,,2,
{16}2,4,,4,3,,{8}3,2/5,1,2/4,3,{16}6,5,,5,7,,{8}7,1,2/8,3h[4:1]/7,,
4,5-7[8:1],3,4-1[8:1],,8x,,1x,2x/5x,{16}3x-1[8:1],4,,4,{8}3x,,1x,2bx/8bx,,
3h[4:1]/5h[4:1],,,2/4,2h[4:1]/4h[4:1],,,,3h[4:1]/5h[4:1],,,4/6,4h[4:1]/6h[4:1],,,,
6h[4:1]/5h[4:1],,,4/5,4h[4:1]/5h[4:1],,,3/4,3h[4:1]/4h[4:1],,,4/5,4/5,,3/6,,
{16}2h[16:3],,,4h[16:3],,,3,,7h[16:3],,,5h[16:3],,,6,,3h[16:3],,,4h[16:3],,,{8}2,1b/5b,,3/7,,
1,1,2/8,2/8,3/7,3/7,4/6,4/6,{12}7,5,6,2,4,3,8,6,7,1,3,2,
{2}8bxh[4:2],4x-1[8:1]*-7[8:1],
{16}2x/6x,,3-8[8:1],4,,4,3,,6,,7-4[8:1],8,,8,7,,1,,2,2,4,4,{8}3,5-2[8:1]*-8[8:1],4/6,,,
3x/7x,{16}6-4[8:1],5,,5,6,,3,,2,2,8,8,{8}1,2-5[8:1]/6-8[8:1],5,2/6,,3-8[8:1]/7-4[8:1],2,3b/7b,,
1x/5x,{16}2-5[8:1],4,,4,2,,6,,7<4[8:1],8,,8,7,,1x,,2,2,4,4,{8}3,5-2[8:1]*-8[8:1],4/6,,,
{16}3x/7x,,4/6,4/6,,3/5,3/5,,1x,,4,5,{4}2pp1[4:1]/6pp5[4:1],,,1x/5x,{8}3/8,4/7,
5/6,{16}3,3,4x,,7,5,6,,3,3,4x,,7,5,6,,2,2,4x,,6,5,7,,3,4,{8}1x,2/8,
{16}3h[8:3]/7,,,4,,,{8}5-7[8:1],{2}5-3-1[4:1],{16}8,,,2/4,,,4/8,,6,5,,3,4,,1/8,,
2x/7x,,6,6,5x,,2,4,3,,6,6,5x,,2,4,3,,7,7,5x,,3,4,2,,6,5,{8}8x,7/2,
{4}3-5[8:1]/6,3/7-3[8:1],7/1-5[8:1],1/8,{16}6,4,6,4,5,3,5,3,7,4,6,5,{4}8b<1b[4:8],
{1},,
8<1[4:7],,
8-6-4-2[4:7],1,
1-3-5-7[4:6],8,
{8}8h[4:1],,5
,5,4/6h[4:1],,2,,2/4h[4:1],,1,1,2h[4:1]/8,,4,,
3-6[4:1],,6,7,8-4[4:1],,4,3,2-6[4:1],,1,8,7-3[4:1],,4,,
{16}1h[16:3],,,2h[16:3],,,3,,8h[16:3],,,7h[16:3],,,6,,2h[16:3],,,3h[16:3],,,4,,7h[16:3],,,6h[16:3],,,5,,
{8}4,4,4,4,{16}4,5,4,5,4,5,4,5,{12}2,4,3,7,5,6,1,3,2,8,6,7,
{2}1bh[4:2],4xw8b[8:1],
{16}2x/6x,,3>8[8:1],4,2,4,3,,6,,7<4[8:1],8,6,8,7,,2,,2,1,3,1,2h[8:1],,8b,5,6,1b,4x,3,8b,,
3x/7x,,6-4[8:1],5,7,5,6,,3,,2,2,8,8,{8}1,2>3-5[8:1]/6<7-1b[8:1],3/7,2b/6b,,4>3-1[8:1]/8<7-5b[8:1],3/7,4b/8b,,
1x/5x,{16}2-5[8:1],1,3,1,2,,8,,6<1[8:1],5,7,5,6,,2x,,2,1,3,1,2h[8:1],,8b,5,6,1b,4x,3,{8}8b,
4x/6x,2,3/5,7,{16}1,8,1,8,2q4b[8:3]/7p5[8:3],3/6,4/5,,{4},,3bx/6bx,4/5,
{8}2-5[8:1]/4,,6,7,8<5[8:1],{16}4,4,{8}8,2,3h[4:1],4,6h[4:1],5,3,{16}3,4,,1,8,,
{8}7-4[8:1]/4,,3,2,1h[8:1],{16}4,4,{8}2-8-6-8-2[4:2],5,5x,,4x,,6-4b[8:1],6,1,,
{8}3-8[8:1]/8,,7,6,5<8[8:1],{16}1,1,{8}5,2,3h[4:1],4,6h[4:1],5,3,{16}3,4,,1,8,,
7/4,,6,5,{8}6<3>6[4:2],4,{4}3x,,Ch[4:2],,{16}5-8b[8:1],,1,1,5b,
