&title=インパアフェクシオン・ホワイトガアル
&artist=ツミキ feat.月乃
&first=1.19
&des=
&lv_2=4
&lv_3=7+
&lv_4=11
&lv_5=14
&inote_2=(207)
{1}1x,
{1}1,
{1}1,
{1}1,
{1}8,
{1}8,
{1}1/8,
{1}1/8,
{1}2,
{1}3,
{1}4,
{1}5,
{1}6,
{1}7b,
{1}7h[1:1]/8h[1:1],
{1},
{1}5h[1:1]/6h[1:1],
{1},
{1}3h[1:1]/4h[1:1],
{1},
{1}1h[1:1]/2h[1:1],
{1},
{2}1,1,
{1}2,
{2}3,3,
{1}4,
{2}5,5,
{1}6,
{2}7,7,
{1}8,
{1}1h[1:1]/8h[1:1],
{1},
{1}B1/B8,
{1}B2/B7,
{1}C1f,
{1},
{2}8x,8,
{2}7,7,
{2}6,6,
{1}5/6,
{2}4,4,
{2}3,3,
{2}2,2,
{1}1/2,
{2}1,1,
{2}2,2,
{2}3,3,
{1}4/5,
{2}5,5,
{2}6,6,
{2}7,7,
{1}1/8,
{1}8-4[4:3],
{1},
{1}1-5[4:3],
{1},
{1}7-4[4:3],
{1},
{1}2-5[4:3],
{1},
{2}7,7,
{1}7/8,
{2}2,2,
{1}1/2,
{2}8,8,
{1}1/8,
{1}7xh[8:7]/8xh[8:7],
{4},,,5xh[1:1]/6xh[1:1],
{1},
{2},3xh[1:1]/4xh[1:1],
{1},
{2},1xh[1:1]/2xh[1:1],
{1},
{2},1x-5[4:3],
{1},
{4},7x-3[4:3],,,
{1},
{4},2-6[4:3],,,
{1},
{4},8-4[4:3],,,
{1},
{4},,,C1h[1:1],
{1},
{4},,,1b,
{4}1,1,,1/8,
{4},1/8,,2,
{4}2,2,,3,
{4},3,,4,
{4}4,4,,4x/5x,
{4},,,5,
{4}5,5,,6,
{4},6,,7,
{4}7,7,,8,
{4},8,,1,
{4}1,1,,1/8,
{4},1/8,,8,
{4}8,1/8,,2x/7x,
{4},,,8b,
{4}8,8,,7,
{4}7,7,,6,
{4}6,6,,4/5,
{4},4/5,,4,
{4}4,4,,3,
{4}3,3,,2,
{4}2,2,,1x/8x,
{4},1x/8x,,1,
{4}1,1,,2,
{4}2,2,,3,
{4}3,3,,4,
{4}4,4/5,,5,
{4}5,5,,6,
{4}6,6,,7,
{4}7,7,,1b/8b,
{4},,,B1/B8,
{4},,,B2/B7,
{4},,,C1h[1:1]/B3/B6,
{1},
{1},
{1},
E
&inote_3=(207)
{2}3h[2:1],4h[2:1],
{2}5h[2:1],6,
{2}6h[2:1],5h[2:1]
,
{2}4h[2:1],3,
{2}2h[2:1],3h[2:1],
{2}4h[2:1],5,
{2}7h[2:1],6h[2:1],
{2}5h[2:1],4,
{2}3h[2:1],4,
{2}6h[2:1],5,
{2}7h[2:1],8,
{2}2h[2:1],1,
{2}8h[2:1],1,
{4}2x/7x,2x/7x,,,
{4}2,2,2,,
{4}3,3,3,,
{4}4,4,4,,
{4}5/6,5/6,5/6,,
{4}7,7,7,,
{4}6,6,6,,
{4}5,5,5,,
{4}3/4,3/4,3/4,,
{4}3,3,3/4,,
{4}2,2,1/2,,
{4}8,8,7/8,,
{4}5/6,5/6,5/6,,
{4}6,6,5/6,,
{4}7,7,7/8,,
{4}1,1,1/2,,
{4}3/4,3/4,3/4,,
{1}2q5[4:5],
{1},
{2}6h[2:1],5,
{2}3h[2:1],4,
{1}4xh[2:3]/5xh[2:3],
{1},
{4}3,3,2,2,
{4}1,1,7/8,,
{4}6,6,7,7,
{4}8,8,1/2,,
{4}2,3,4,5,
{4}6,7,1/8,,
{4}1/2,1/2,1/2,,
{4}7/8,7/8,7/8,,
{4}7,7,6,6,
{4}5,5,3/4,,
{4}2,2,3,3,
{4}4,4,5/6,,
{4}7,7,6,6,
{4}5,5,4,4,
{4}3,3,2,2,
{4}1x/8x,1x/8x,1x/8x,,
{2}2h[2:1],1h[2:1],
{2}8h[2:1],7,
{2}7h[2:1],8h[2:1],
{2}1h[2:1],2,
{2}2h[2:1],3h[2:1],
{2}4h[2:1],5h[2:1],
{2}6h[2:1],7,
{4}1/8,1/8,1/8,,
{4}B2,B3,B4,,
{4}B7,B6,B5,,
{4}B1,B2,B3/B4,,
{4}B8,B7,B5/B6,,
{4}B2,B1,B8,B7,
{1}C1,
{1}2z6[1:1],
{4},,,7s3[1:1],
{1},
{4},,2,2,
{4}1/2,,3,3,
{4}3/4,,6,6,
{4}5/6,,7,7,
{2}7/8,1s5[1:1],
{1},
{4},6,6,5,
{4}5,4,4,3,
{4}3,2h[2:1],,1,
{4},7h[2:1],,8,
{4},1h[1:2]/8h[1:2],,,
{1},
{4},,,2b/7b,
{1},
{4},,,2,
{4}2,2,1/2,3,
{4}3,3,3/4,6,
{4}6,6,5/6,7,
{4}7,7,7/8,1/2,
{4}1/2,1/2,,7/8,
{4}7/8,7/8,,6,
{4}6,7,7,8,
{4}8,1/2,,3,
{4}3,2,2,1,
{4}1,7/8,,7,
{4}7,7/8,7/8,6,
{4}6,5/6,5/6,3,
{4}3,3/4,3/4,1b/2b,
{4},,,3,
{4}3,1/2,1/2,8,
{4}8,7/8,,6,
{4}6,7/8,7/8,1,
{4}1,1/2,,3,
{4}3,4,4,5,
{4}5,6,6,5/7,
{4}5/7,5/7,,2/4,
{4}2/4,2/4,,1,
{4}2,3,4,5,
{4}6,7/8,,8,
{4}7,6,5,4,
{4}3,1/2,,2,
{4}2,1/2,1/2,3,
{4}3,3/4,3/4,6,
{4}6,5/6,5/6,7/8,
{4}7/8,7/8,,1/6,
{4}1/6,1/6,,3/8,
{4}3/8,3/8,,2,
{4}1,8,7,1b/8b,
{1},
{1},
{1},
E
&inote_4=(207)
{16}3xh[4:1],,,,4x,,,,3x/4x,,,4x/5x,,,5x/6x,,
{8},4x/7x,4x/7x,,3x/6x,,4x/5x,,
{4}2b/7b,6,3/5,2,
{4}3,4,5,4/6,
{4}7,7/8,2,1/2,
{4}8,8,1/7,2/6,
{4}3x/5x,6,5/6,3,
{4}3/4,6,5/6,4/7,
{8}5/6,,3,3,4,,3/5,,
{8}6,6,5,,4x/7x,,,,
{8}3h[4:1],,4,4,2,,1/8,,
{8}7h[4:1],,5,5,6,,4/7,,
{4}3,2/4,6,5/7,
{4}7,7/8,2,1/2,
{4}3,3/4,6,5/6,
{4}4/7,3b/8b,,,
{4}3/4,3h[1:1]/4,,5,
{4},4,,4/5,
{4}5/6,5/6h[1:1],,4,
{4},5,,3/4,
{4}2/5,2h[2:3]/5,,B4,
{4},B6,,4,
{4}3,3,2,1q6[2:1],
{4},,8x,7x,
{8}6,6h[4:1],,5,,4,,3/5,
{8},4/6,,8,8h[4:1],,5,,
{8}3,3h[4:1],,4,,5,,4/6,
{8},3/5,,1,1h[4:1],,4,,
{8}6,6h[4:1],,5,,4/7,,3,
{8},2/4,2/4,,1x,,1x/8x,,
{8}7,,5/6,,4,4,,3x/5x,
{8},2x,2x-6[4:1],,,,,,
{1}8bz4[4:3],
{8},,,,,2bx/8bx,2bx/8bx,,
{4}E2,E3,E4,C1,
{4}E8,E7,B5/E6,B3/E4,
{1}C1h[1:1],
{2},1x/8x,
{4}2b/4b,7/8,4/6,1/2,
{16}6/8,,,,4/5,,,,2h[16:3],,,3h[16:3],,,4,,
{16}4,,,,2/6,,,,7h[16:3],,,6h[16:3],,,5,,
{4}5,2/4,1/8,5/7,
{2}5/4>1[4:1],8<5[4:1],
{4}3>8[4:1],,6,6,
{8}5/7,5/7h[4:1],,1b,,2/5,2/5,,
{8}3/4,3h[4:1]/4,,8b,,5/6,5/6,,
{4}3/4,5/7,1/2,7/8,
{16}1/3,,,,5/7,,,,4h[16:3],,,3h[16:3],,,2,,
{16}2,,,,7/8,,,,6h[16:3],,,7h[16:3],,,8,,
{2}8-4[8:1],2-6[8:1],
{4}8b,,2/6h[4:1],4h[4:1],
{4}2h[4:1],4h[4:1],6h[4:1],8,
{4}7/8,1/2,3/4,5/6,
{4}7b/8b,2b/4b,5b/7b,1b-5b[8:1]/8b-4b[8:1],
{4},,3x/6x,3x/6x,
{4}5,1/6,4,3/8,
{4}1/2,1/2,7/8,7/8,
{4}6h[4:1],5h[4:1],4h[4:1],3,
{2}2>5[4:1],7p3[4:1],
{4}1q5[4:1],,7,7,
{8}6h[4:1],,5,5,7,,7/8,7/8,
{8},1,1,,2b/8b,,,,
{8}6,6,5,7,3,3,4,2h[4:1],
{8},1,1<6[4:1]/2p5[4:1],,,,,,
{8}3,3,4,2,6,6,5,7h[4:1],
{8},8,7q4[4:1]/8>3[4:1],,,,,,
{4}5/6h[4:1],8h[4:1],1h[4:1],3h[4:1],
{4}4b,1b/7b,2b/6b,,
{8}3h[4:3]/4h[4:3],,,,,,,3x/4x,
{8},1,1,,2/4,,5h[4:3]/6h[4:3],,
{8},,,,,5x/6x,,8,
{4}8,5/7,4h[4:1],3h[4:1],
{4}2h[4:1],1h[4:1],8h[4:1],7h[4:1],
{4}6h[4:1],5,5,B4/B6,
{4}E3,E8,C1/B3/B7,,
{8},2x,2x,,3h[2:3]/4,,4,,
{4}4,2,8,2,
{4}4,5/6h[2:3],5,5,
{4}7,1,7,5,
{4}5/6,4-8[4:1],,5-1[4:1],
{4},4>1[4:1],,5<8[4:1],
{4},2bh[8:15],,,
{4},C1h[8:7],,,
{4},,,1xh[4:5]/8xh[4:5],
{1},
{4},1-5[8:1]/8-4[8:1],,3bx/6bx,
{16}3/6,,,,2h[16:3],,,3h[16:3],,,4,,4,,,,
{4}5/7,1/8,2/4,4/5<8[4:1],
{4},1>4[4:1],,6<1[4:1],
{8},,3,,3,,2/4,2h[4:1]/4,
{8},8b,,4/7,4/7,,5/6,5/6h[4:1],
{8},1b,,3/4,3/4,,5/6,,
{4}2/4,7/8,1/2,6/8,
{16}2/4,,,,5h[16:3],,,6h[16:3],,,7,,7,,,,
{16}1/2,,,,3h[16:3],,,2h[16:3],,,1,,1-5[8:1],,,,
{4},7-3[8:1],,1b,
{4},3h[4:1]/7,5h[4:1],7h[4:1],
{4}5h[4:1],3h[4:1],1,1/2,
{4}7/8,5/6,3/4,1b/2b,
{4}3/8w4[4:1],,,2h[4:1]/6b,
{4}1,3/7h[4:1],8,1/2,
{16}4/5,,,,6h[16:3],,,7h[16:3],,,8,,8,,,,
{16}1/7,,,,3h[16:3],,,2h[16:3],,,1,,1-5[8:1],,,,
{4},4-1[8:1]/6-1[8:1],,2x/8x,
{4}3/7h[4:1],5h[4:1],3h[4:1],1h[4:1],
{8}7h[4:1],,8,,7/8,,5/6,5/6,
{8},2b/8b,,3/4,,5bx/7bx,5bx/7bx,,
{8}1bx/8bx,2bx/7bx,,4x/5x,4x/5x,,5x/6x,,
{4}2/3,7/8,1/3,7/8,
{16}1/6,,,,2h[16:3],,,3h[16:3],,,4,,4,,,,
{16}1/7,,,,6h[16:3],,,7h[16:3],,,8,,8b,,,,
{4}1b/7b,2b/6b,3b/5b,1/2-5[8:1],
{4},8/7-4[8:1],,1/2-6[8:1],
{4},8/7-3[8:1],,1-5[8:1]/2-5[8:1],
{4},7-4[8:1]/8-4[8:1],,1b/2b,
{8},,,,4x/5x,,2,2,
{8}4,3,7,7,5,6,4,4,
{8}5,5,3,3,2b/6b,,1h[4:3],,
{4},,8-4[8:1],2b,
{1},
{1},
{1},
E
&inote_5=(207)
{16}3b/6b,,,,5,4,5,4,5,,,4/6,,,3h[4:1]/5,,
{8},4,4,,1v4[8:1]/7v4[8:1],,,,
{8}5/3-1[8:1],,6,7,8-6[8:1],,4,3,
{8}2-6[8:1],,5,,5/7,8,1,2,
{8}3/4-8[8:1],,1,,1/7,6,5,4,
{4}3/2-6[8:1],8,5/7-3[8:1],1,
{8}4/2-8[8:1],,5,6,7-5[8:1],,3,2,
{8}1-3[8:1],,5,6,7,8,1/2-6[8:1],,
{8}7-4[8:1],,5,,3,4,3,2/5,
{16},,4/7,,4/7,,,,6,5,6,5,6,,,,
{8}4/5-7[8:1],,3,2,1-3[8:1],,5,6,
{8}7-3[8:1],,4-6[8:1],,2,1,8,7,
{8}6/5-1[8:1],,8-6[8:1],,2,3,4,5,
{4}6/7-3[8:1],1,4/2-6[8:1],8,
{8}5/7-1[8:1],,4,3,2-4[8:1],,6,7,
{4}2-6[8:1]/8-4[8:1],2b/8b,,,
{8}4h[1:2]/7,,6,6,6,,5,5,
{8}5,,3,3,3,,5,,
{8}6h[1:2],,5,5,5,,7,,
{4}8,1,2,3,
{8}4h[1:2],,6,6,6,,5,5,
{4}5,3,2,1,
{4}8h[4:3],3,2,1,
{8}7/8,7/8,6,4/5,4/5,3,1/2,,
{8}3<6[4:1],,6>3[4:1],,7,,8,8,
{8}2<7[4:1],,7>2[4:1],,6,,5,5,
{4}3h[4:1]/4,1h[4:1],2,5h[4:1]/6,
{4}7>2[4:1],2<7b[4:1],3,4,
{8}5/6,,3,4,2/5,,6,5,
{4}4/7,3/4,5/7,1/8,
{8}3/4-1[8:1],,3-8[8:1],,7,,7,7-4[8:1],
{8},8-5[8:1],,6,,4/6,4/6,,
{16}3b/7b,,,,B2/E2,,E7,B6,B5,,E3,B3,B4,,B7/E8,,
{8}C1h[8:3],,,,,1/8,1/8,,
{4}3/5,3/5,3/4,3/4,
{16}4/6,,,,4/6,,,,5/6,,,,5/6,,3,4,
{16}3,,2/5,,2/5,,3,4,3,,,5/7,,,4/6,,
{16}3,4,3,,,2/5,,,4/7,,,,2-5[8:1]/6-1[8:1],,,,
{4}2b/6b,4>1[8:1]/8<5[8:1],8/4-8[8:1],4/2V46[8:1],
{16}2/7-3[8:1],,,,1/7,,,,2/4,,,5,4,,5/6,,
{16}5/6-2[8:1],,,,5,,4,,1/3,,,8,1,,7/8,,
{4}7/8>3[8:1],8<5[8:1],8-4[8:1],8w4[8:1],
{4}8,2/6,4/8<5[8:1],3,
{4}2>5[8:1],6,7-3[8:1],3,
{8}2/4,2/4>5[8:3]*q5[8:3],,4,,,,,
{8}5/7,7/5<4[8:3]*p4[8:3],,5,,,,,
{4}2/4<8[4:1],8>4[4:1],4q8[4:1],8q4[4:1],
{16}2-6[8:1],,,,2,,,,5/7,,,4,5,,3/4,,
{16}4/3-7[8:1],,,,4,,5,,6/8,,,1,8,,1/2,,
{4}2/1-5[8:1],2-6[8:1],4<7[8:1],8-3[8:1]*-5[8:1],
{4}8b,,2>5[8:1],2/7,
{4}8<5[8:1],5/8,4>1[8:1],4/6,
{4}8/7-4[8:1],7/8-3[8:1],5/8,5-1[8:1]/7-3[8:1],
{4}5/7,2/4,2-6[8:1]/8-4[8:1],2/8<1[2:1],
{4}C1f/8b,,,2/8,
{8}3/7-3[8:1],,4-6[8:1],,2,1,8,7,
{8}6/5-1[8:1],,8-6[8:1],,2,3,4,5,
{4}6/7-3[8:1],1,4/2-6[8:1],8,
{8}5/7-1[8:1],,4,3,2-4[8:1],,6,7,
{8}8-6[8:1],,4,3,2,1,8/7-3[8:1],,
{8}2-5[8:1],,4,,6,5,6,4/7,
{16},,2/5,,2/5,,,,3,4,3,4,3,4,3,4,
{16}2h[4:1],,,,5,,7,8,7h[4:1],,,,3,,3h[4:1],,
{48},,,,,,5,,,4,,,5,,,,,,3/6,,,,,,2,,,,4,,,,3,,,,7,,,,5,,,,6,,,,
{16}4/5,,4/5,,3,4,,6,5,,4/7,,6,5,6,,
{16}4/5,3,2,1,5,6,7,8,1/3,,,,2/6,,,,
{12}3,4,2,6,5,7,3,4,2,6,5,7,
{4}4-1[8:1],4/8-5[8:1],8/2-7[8:1],2/6-3[8:1],
{8}1h[4:3]/6b,,,,,,,2h[4:1]/4h[4:1],
{4},2/4,6/1-5[8:1],1b/8h[4:3],
{8},,,,,5h[4:1]/7h[4:1],,,
{4}5/8-4[8:1],3/8,1-6[8:1],4-7[8:1],
{4}5-2[8:1],8-3[8:1],1-6[8:1],4-7[8:1],
{8}5-2[8:1],,7,,1h[4:1]/8h[4:1],,,2/4,
{8}2h[4:1]/4h[4:1],,,6/8,6h[4:1]/8h[4:1],,,4/5h[8:3],
{8},4,4,,3/8V64[4:1],,2,,
{4}1V75[4:1],3,2V86[4:1],4,
{4}3,6/1V35[4:1],7,8V24[4:1],
{4}6,7V13[4:1],5,6,
{4}4/7,3h[8:1]/5,3h[8:1]/5,3h[8:1]/4,
{4}3h[8:1]/4,4/6h[8:1],4/6h[8:1],5/6h[8:1],
{16}5/6,,7,8,7,,3/5,,3/5,,2,1,2,,,5/7,
{16},,1/3,,6,5,6,,,1/7,,,2/4,,,3/6,
{8},1b/8b,,,,,3h[1:1]/6h[1:1],,
{1},
{4}4-8[8:1]/5-1[8:1],4b/5b,,1/2-6[8:1],
{16}1,,8,,5/7,,,4,5,,3/4,,3/4<7[8:1],,,,
{4}4>1[8:1],4-8[8:1],4w8[8:1],4,
{4}2/6,3/7<4[8:1],2,2>5[8:1],
{8}6,,7-3[8:1],,3,,2/4,2/4>5[8:3]*q5[8:3],
{16},,4,,,,,,,,,,4/7,,6,5,
{16}6,,2/5,,3,4,3,,5/2-6[8:1],,,,2/5>1[4:1],,,,
{4}1<5[4:1],5p1[4:1],1p5[4:1],3-7[8:1],
{16}3,,,,6/8,,,1,8,,1/2,,1/2-6[8:1],,,,
{16}1,,8,,5/7,,,4,5,,3/4,,5/2V86[4:1],,,,
{4}6V42[4:1],2-6[8:1],8w4[8:1],8b,
{4}2/6,2>5[8:1],2/7,8<5[8:1],
{4}4/8,2<7[8:1],2/5,6-1[8:1],
{4}6/4-7[8:1],4/8-3[8:1],8/2<5[4:1],2/6h[4:1],
{16},,,,1,8,1,8,1,8,1,8,2b-4[8:1]/7b-4[8:1],,,,
{4}7/2<7[8:1],2/6v1[8:1],6/2V46[8:1],2/7-3[8:1],
{16}1/7,,,,2/4-8[8:1],,,5,4,,6,,6-2[8:1],,,,
{16}7,,8,,1/3-7[8:1],,,4,3,,5,,6-2[8:1]/8-4[8:1],,,,
{4}6/8,1-5[8:1]/3-7[8:1],1/3,6/8,
{4}1/2,3/5<8[8:1],3/5,7/2>5[8:1],
{16}2/7,,,,6/8<5[8:1],,,,6/8,,,,2/4,,7,8,
{16}7,,4/6,,2,1,2,,3/5,,7/8,,2/6,,2h[4:1]/6h[4:1],,
{32},,,,,,,,1/8,2,3,4,5,6,7,8,1-4[8:1]/5v8[8:1],,,,,,,,1b/5b,,,,,,,,
{4}3>8[8:1]/7<4[8:1],7/3-7[8:1],3/1V35[8:1],1/6-2[8:1],
{16}6/8,,,,1/3,,,8,1,,7/8,,8/7-3[8:1],,,,
{16}8,,1,,2/4,,,5,4,,5/6,,5/6-2[8:1],,,,
{4}6/7-3[8:1],7/8-4[8:1],8/1w5[8:1],1b,
{4},4/8<5[8:1],4/8,6/4>1[8:1],
{4}4/6,2/5<8[8:1],5/1-6[8:1],1/7-4[8:1],
{4}7/5-2[8:1],5/3-8[8:1],3/1-5[8:1],1b/7h[4:3],
{32},,,,,,,,,,,,,,,,1,,,,,,,,1b,2,3,4,5,6,7,8,
{32}1,2,3,4,5,6,7,8,1,2,3,4,5,6,7,8,1,2,3,4,5,6,7,8,1,2,3,4,5,6,7,8,
{32}1,2,3,4,5,6,7,8,1,2,3,4,5,6,7,8,1,,,,,,,,6h[4:1],,,,,,,,
{8}3,2,1-5[8:1]/8-4[8:1],,1/8,,3b/6b,,
{1},
{1},
{1},
E
