&title=enchanted wanderer
&artist=linear ring
&first=1.06
&des_4=みそかつ侍
&des_5=アマリリス
&lv_2=3
&lv_3=7
&lv_4=12
&lv_5=13+
&inote_2=
(102)
{1}1h[1:1],
{1},
{1}8h[1:1],
{1},
{2}1,1,
{1}1,
{2}8,8,
{1}1/8,
{2}B1,B8,
{2}B2,B7,
{2}B3,B6,
{2}B4,B5,
{1}C1h[1:1],
{1},
{2}8,8,
{2}1,1x/8x,
{4}8b,8,8,,
{4}7,7,7,,
{4}6,6,6,,
{2}4/5,4/5,
{4}4b,4,4,,
{4}3,3,3,,
{4}2,2,2,,
{2}1/8,1/8,
{1}1h[2:1]/8h[2:1],
{2}2,2,
{1}3h[2:1]/4h[2:1],
{2}5,5,
{1}5h[2:1]/6h[2:1],
{2}7,7,
{1}1h[2:1]/8h[2:1],
{2}2,1,
{2}8,7,
{4}1/8,1/8,1/8,,
{1}8-5[4:3],
{1},
{1}4-1[4:3],
{1},
{1}8-4[4:3],
{1},
{1}1-5[4:3],
{1},
{4}8,8,8,,
{1}1h[2:1]/8h[2:1],
{4}8b,8,8,8,
{4}7,7,7/8,,
{4}6,6,6,6,
{4}5,5,4/5,,
{4}4,4,4,4,
{4}3,3,3/4,,
{4}2,2,2,2,
{4}1,1,1/8,,
{4}1,1,2,2,
{4}3,3,3/4,,
{4}5,5,6,6,
{4}7,7,7/8,,
{4}8,8,7,7,
{4}6,6,5,5,
{4}4,4,3,3,
{4}2,2,1x/2x,,
{4}8,8,1,1,
{4}1/8,1/8,1h[2:1]/8h[2:1],,
{1},
{1},
{1},
E
&inote_3=
(102)
{2}3h[2:1],2h[2:1],
{2}1h[2:1],8h[2:1],
{2}7h[2:1],6h[2:1],
{4}5,,4/5,4/5,
{1}3h[2:1]/4h[2:1],
{4}5,5,6,6,
{1}7h[2:1]/8h[2:1],
{1}1h[2:1]/2h[2:1],
{2}7/8,7/8,
{2}5/6,5/6,
{2}3/4,3/4,
{4}1/2,,1/8,1/8,
{1}2-5[2:1],
{1}7-4[2:1],
{4}3,3,3/4,,
{4}6,6,5b/6b,,
{4}7,7,6,6,
{4}5,5,3/4,,
{4}2,2,3,3,
{4}4,4,5/6,,
{4}7,7,8,8,
{4}1/2,1/2,1/2,,
{4}3,3,2,2,
{4}1,1,7/8,,
{4}7,7,7/8,7/8,
{4}6,6,5/6,5/6,
{4}4,4,3/4,3/4,
{4}1/2,1/2,1/2,,
{4}2,2,1/2,1/2,
{4}3/4,3/4,5/6,5/6,
{1}7-4[2:1]/8-3[2:1],
{1}1-6[2:1]/2-5[2:1],
{4}7/8,7/8,1/2,1/2,
{8}8x,8x,8x,,1x,1x,1x,,
{2}2h[2:1],1,
{2}3h[2:1],4,
{2}6h[2:1],5,
{2}7h[2:1],8,
{4}B6,B7,B8,B1,
{4}B2,B3,C1,,
{4}B4,B3,B2,B1,
{4}B8,B7,C1,,
{4}B7/B8,B5/B6,B3/B4,B1/B2,
{1}C1fh[2:1],
{4}2,2,1/2,1/2,
{4}3,3,3/4,3/4,
{4}5,5,5/6,5/6,
{4}7/8,7/8,7/8,,
{4}7,6,5,4,
{4}3,2,1/8,,
{4}2,3,4,5,
{4}6,7,1b/8b,,
{8}2,2,1/2,,3,3,3/4,,
{8}5,5,5/6,,7/8,,,,
{8}7,7,7/8,,6,6,5/6,,
{8}4,4,3/4,,1/2,,,,
{8}2,2,3,3,4,4,5/6,,
{8}7,7,6,6,5,5,3/4,,
{1}1<6[2:1]/2>5[2:1],
{1}7<4[2:1]/8>3[2:1],
{4}1/2,1/2,7/8,7/8,
{8}1,1,2,2,3,3,4,4,
{1}4bx/5bx,
{1},
{1},
{1},
E
&inote_4=
(102)
{2}4h[24:5]/5h[8:1],4h[8:1]/6h[24:5],
{2}5h[24:5]/6h[8:1],5h[8:1]/6h[24:5],
{2}4h[24:5]/5h[8:1],3h[8:1]/5h[24:5],
{8}3h[24:5]/4h[8:1],,,,5h[8:1],3,4h[8:1],6,
{2}4h[24:5]/5h[8:1],3h[8:1]/6h[24:5],
{8}6h[4:1],5,5h[4:1],4,4h[4:1],3,3h[8:1],4,
{2}2h[24:5]/4h[8:1],3h[8:1]/6h[24:5],
{8}5h[24:5]/7h[8:1],,,3/5,2h[8:1]/4h[24:5],,,4/6,
{8}7h[4:3]/5xpp4[2:1],,,,,,,2/4,
{8}2h[4:3]/4xqq5[2:1],,,,,,,5/7,
{8}7h[4:3]/5xpp3[2:1],,,,,,,2/4,
{4}1-4[8:1]/5-8[8:1],,B2/E3,B7/E7,
{8}2h[4:1]/5,,4h[4:1],,3,4,2/5,,
{8}4/7h[4:1],,5h[4:1],,6,5,4/7,,
{8}6h[12:1],5h[12:1],4h[12:1],3h[12:1],2h[12:1],1h[12:1],8h[12:1],7h[12:1],
{24}6,,6,5,,5,4,,4,3,,3,5,,5,4,,4,5,,,,,,
{8}7xh[4:3]/3xq5[2:1],2,,,,,,,
{8}4/6h[4:1],,5,4,3h[4:1]/5,,B4/E4,,
{8}2xh[4:3]/6xp4[2:1],7,,,,,,,
{8}3h[4:1]/5,,4,3,2h[4:1],,1h[8:1],8h[8:1],
{8}7h[4:1],,5,4,3h[4:1]/5v4[4:1],6,,,
{4}2h[4:1],4h[4:1],6h[4:1],8h[4:1],
{4}2>5[24:5],6,6<1[24:5],2,
{8}2h[4:1],4,5h[4:1],4,3,2/4,1b/5b,,
{8}3qq1[4:1],2/4,,,5h[4:1],,,,
{8}2-5[8:1],6-1[8:1],,,3h[4:1],,4,2/5,
{8}6pp8[4:1],5/7,,,4h[4:1],,,,
{8}7-4[8:1],3-8[8:1],,,6h[4:1],,7h[4:1],,
{8}8-5[8:1],1/7,,,4-1[8:1],3/5,,,
{8}8h[4:1],,6h[4:1],,4h[4:1],,2,4/5,
{1}7bx/2bxV86[8:5]V42[384:239]<2[384:527],
{1}B1/B2/E2,
{2}B7/B8/E8,B1/C1/B8,
{24}3h[12:1]/4h[12:1],,,4h[12:1]/5h[12:1],,,5h[12:1]/6h[12:1],,,4h[12:1]/5h[12:1],,,3,,3,6,,6,3b,,,2/7,,,
{48}E2,B1,,,,,,,,,,,,,,,,,,,,,,,E6,B5,,,,,,,,,,,,,,,,,,,,,,,
{48}E4,B4,,,,,,,,,,,,,,,,,,,,,,,E8,B8,,,,,,,,,,,,,,,,,,,,,,,
{48}D2,A1,,,,,,,,,,,,,,,,,,,,,,,D6,A5,,,,,,,,,,,,,,,,,,,,,,,
{48}D4,A4,,,,,,,,,,,,,,,,,,,,,,,4,,,,,,,,,,,,3/5,,,,,,,,,,,,
{4}2V46[4:1],6,7V53[4:1],3,
{4}2h[4:1],8h[4:1],6h[4:1],4h[4:1],
{4}2h[8:1],2h[8:1]/4h[8:1],3h[8:1]/5h[8:1],3h[8:1]/5h[8:1],
{4}4h[8:1]/6h[8:1],4h[8:1]/6h[8:1],5h[8:1]/7h[8:1],5h[8:1]/7h[8:1],
{8}6h[12:1]/7h[12:1],5h[12:1]/6h[12:1],4h[12:1]/5h[12:1],3h[12:1]/4h[12:1],2h[12:1]/3h[12:1],3h[12:1]/4h[12:1],4h[12:1]/5h[12:1],5h[12:1]/6h[12:1],
{12}4x/5x,4x/5x,4x/5x,3x/6x,3x/6x,3x/6x,C1fh[2:1],,,,,,
{4}B3/B6,1bxq4[8:3]/8bxqq5[8:3],,,
{8}4/5,,2-7[8:1],6-3[8:1],,,8h[8:1],4h[8:1],
{8}2>5[24:5],,6,,6v4[4:1],5/7,,,
{8}3h[4:1],,2h[8:1],1h[8:1],8,7,8w4[8:1],1/7,
{8},,2bx/6bx,,1-4[8:1],5-8[8:1],,,
{4}3h[4:1],1h[4:1],7h[4:1],5h[4:1],
{8}4-7[8:1],3-8[8:1],,,5,5,4/6h[4:1],,
{8}7-4[8:1],8-3[8:1],,,5,4,2b/7b,,
{8}1p5[8:1]*q5[8:1],2/8,,,4p8[8:1]*q8[8:1],3/5,,,
{8}2<8[8:1],6>4[8:1],,,8xh[4:1],,4,2/6,
{8}8p4[8:1]*q4[8:1],1/7,,,5p1[8:1]*q1[8:1],4/6,,,
{8}3<5[8:1],7>1[8:1],,,5xh[4:1],,6,5/6,
{8}4/5,3h[8:1]/4,2-5[8:1],1-6[8:1],,,4,3,
{8}2>4[8:1]/6<8[8:1],1/5,,,1/3,1/8,6/8,4/5,
{4}7bx/2bxV86[8:5]V42[384:239]<2[8:11],,,B5/B6/E6,
{4}B1/B2/E2,,,B3/B4/E4,
{2}B7/B8/E8,B1/C1/B8,
{24}3h[12:1]/4h[12:1],,,4h[12:1]/5h[12:1],,,5h[12:1]/6h[12:1],,,4h[12:1]/5h[12:1],,,3,,3,6,,6,3,,,4/5,,,
{8}1b/8bh[8:11],,E2,E8,B2,B7,B3,B6,
{8}E4,E6,A4,A5,,,,,
{1},
{1},
{1},
E
&inote_5=(102)
{4}4h[4:1],B4,3h[4:1],B3,
2h[4:1],B2,1h[4:1],B1,
8h[4:1],B8,7h[4:1],B7,
6h[4:1],B6,7h[4:1],5,
{24}6,,6h[8:1],5h[24:2],,,{4},{24}4,,4h[8:1],5h[24:2],,,{4},
{24}3,,3h[8:1],4h[8:1],,,{8},3/4,{24}5,,5h[8:1],4h[8:1],,,{8},5/4,
{24}6,,6h[8:1],5h[24:2],,,{4},{24}3,,3h[8:1],4h[24:2],,,{4},
{24}6,,6h[8:1],5h[8:1],,,{8},4/5,{24}3,,3h[8:1],4h[8:1],,,{8},1/8,
2>4[12:1],8h[12:1],,,6<8[12:1],4h[12:1],,,
2>4[8:1],8h[12:1],,,7p3[8:1],1h[12:1],,,
{24}2>4[12:1],,2,{8}1h[12:1],,,{24}5<7[12:1],,5,{8}4h[12:1],,,
{24}1>3[12:1],,1,{8}8h[12:1],,,{24}3>1-7[8:1],,3,{8}4h[12:1],,,
{4}5h[8:7],{8}A8,B2,B7,E4,E6,A4,
{24}4,,4,6h[8:1],,,3,,3,5h[8:1],,,2,,2,4h[8:1],,,1,,1,3h[8:1],,,
{4}7h[8:1],8h[8:1]/4h[8:1],1h[8:1]/5h[8:1],2h[8:1]/6h[8:1],
{24}3,,3,4,,4,5,,5,6,,6,7,,7,{8}8,2-5[12:1]/7-4[12:1],1/8,
2x/7x,,{24}1x-5[12:1],2,3,1x,8,7,1x,,,,,,7x,5,6,4x,6,5,
{8}7h[4:1],,5w1[8:1],2/8,5x,,{12}7h[4:1],B3,C,
B7,,,{48}6-3[12:1]/A4,D4,A3,D3,A2,D2,A1,D1,A8,D8,A7,,{8},,1/2,{24}3/5,,1/8,
1h[8:1]/8h[8:1],,,,,,8x-3[12:1],7x,6x,5x,4x,3x,{4}8x<5[12:1],8xw4[12:1],
8x,{24}4,,5,3,,4,2,,5,3,,3,{8}5<1[12:1],4/6,
{4}5x/1-5[12:1],1x/5xw1[12:1],5bx,{8}2h[12:1]/8h[12:1],3/7,
{8}1hx[4:1]/6x>3[8:1],8,,,{8}8hx[4:1]/3x<6[8:1],1,,,
{8}5hx[4:1]/2x<7>2[4:1],4,,,6-3[12:1],5,3,,
2/1-5[12:1],1/8-6[12:1],,,3-6[12:1],6-3[12:1],,,
7-4[12:1],8/1-3-8qq4[4:2],,,,,,,
5-1[12:1],4-2[12:1]/5,3,,7>1p5[4:1],6/5,4,,
2>5[12:1],1/8-6-1-5-2-4[4:2],,,,,,,
2qq7[4:1],3q6[4:1],,,,,8-4[12:1],1/7,
{4}8x>3[12:1],8x<5[12:1],8xw4[12:1],8x,
4b-8[4:2]/6b,{8}D1,D8,D7,D6,D5,,
8b-4[4:2]/2b,,{8}D5,D4,D3,D2,D1,,
6b-3[12:1]/5hb[8:1],,C,E3,2b-7[12:1]/1hb[8:1],,C,E7,
3-6[12:1],7-2[12:1],3x,7x,5-2[12:1],1-6[12:1],5x,1x,
{1}1x-3-5-7-1[4:13]*>1[4:13],
,
,
{4},,,4z8b[8:1]/5s1b[8:1],
4b/5b,,Cf/B1/B2/B3/B4/B5/B6/B7/B8,,
Cf/B6/B5/E6/A6/A5,Cf/B3/B4/E4/A3/A4,Cf/B1/E1/B8/A8/A1,,
3-1[12:1],4-8[12:1],5-7[12:1],{8}1,1,
{4}6-8[12:1],5-1[12:1],4-2[12:1],{8}8,8,
4-2[12:1],5-7[12:1],4-8[12:1],5-1[12:1],4-2[12:1],5-7[12:1],4,5,
{12}3>1[12:1],4,4,6<8[12:1]/3x,5,5,6x/E2,E3,E4,E8,E7,E6,
{4}4<7[12:1],3x/4x>1[12:1],4x/5x,{24}8,,5,6,,4-6<8q6[24:7],
{4}5h[4:2],,,{12}5/6,3/4,1/2,
8h[4:1],,,{48}4<2[12:2],D4,A3,D3,A2,D2,A1,D1,A8,D8,A7,,{8},,3x,2/4,
4h[8:1]/6h[8:1],,{24}5x<8[12:1],4,5,3,5,2,{4}5x>2[12:1],5xs1[8:1],
5x,{24}2x,3,4,1x,8,7,{8}2x/6xz2[8:1],3,{4}4>8[12:1],
4x<8[12:1],4xw8[12:1],4x,{8}1h[16:1]/7h[16:1],2/6,
7hx[4:1]/4x>1[8:1],5,,,2hx[4:1]/5x<8[8:1],4,,,
{24}1,,1,8,,8,1>4[8:1]*<5[8:1],,1,8,,,,,,,,,4/5,,2,8,,,
{8}3v1[8:1]/7v5[8:1],1/5,,,2v3[8:1]/6v7[8:1],3/7,,,
8-6[12:1]/4-2[12:1],2<1v3[12:2]/6>5v7[12:2],,,,,1/8,2/7,
3<4-1[12:2]/6<8q5[12:2],2/5,,,5>4-7[12:2]/2<8p3[12:2],6/3,,,
2v8[8:1]/6v4[8:1],8>3[8:1]/4<7[8:1],,,,1,4/8,2/6,
3-8[12:1]/4-7[12:1],8>4[12:2]/7q5[12:2],,,,,4>8b[12:1],,
{96}4bx<8b[12:1],A3f,D3,A2,D2,A1,,,{12},,{96}4bx>8b[12:1],A5f,D6,A6,D7,A7,,,{12},,{96}4bx,A3f,D3,A2,D2,A1,,,{12},,{8}1x/7x,,
2b-6[4:2]/4hb[8:1],,D6,D7,D8,D1,D2,,7b-3[4:2]/5hb[8:1],,D4,D3,D2,D1,D8,,
6bh[8:1]/5b-2[12:1],,C,E2,2bh[8:1]/1b-6[12:1],,C,E6,
{24}6-1[12:1],,6,2-5[12:1],,2,,,,,,,1<6[12:1],,1,5>2[12:1],,5,,,,,,,
Ch[4:1],
