&title=ULTRA SYNERGY MATRIX
&artist=Tanchiky
&first=1.51
&des=サファ太
&lv_5=14
&inote_5=(160)
{1}1q8[4:1]/8p1[4:1],2<7-3<6[4:2],
5-7-4-1-3[4:2],{8}5x/4,6,5x/7,6,5x/3,2,1x>5[4:1]/6x,,
{4}5<1[4:1],1>5[4:1],5<1[4:1],1>5[4:1],5<1[4:1],1,5,3/7,
D8/E8/B8/E1/D1,E2/B1/C/B5/E6,D4/E4/B3/E3/D3/B4/E5/D5,2h[4:1],1bx,{12}8x/1,1x/8,8x/1,{4}2x-5[8:1]/7-4[8:1],2/7,
3bx/6bx,{16}3x,5,4,6,3x,5,4,6,3x,7,4x,6,5x,6,4,5,2x,4,3,4,{4}1b-5[8:1],8b,
3b/7b,{16}3x,6,4,5,3x,6,2,5x,5x,4,6x,2,8x-4[8:1],,,,4bx,,,,3/5x,3/5x,,4x/6,4x/6,,7x/3,,
{8}8/2xh[4:1],,4-6[8:1],4,2-4[8:1],2,1,8,7<5[8:1],7-1[8:1],7-3[8:1],,{16},,,1bx,,,2bx/8bx,,
{8}3bx/7bxh[4:1],,5-3-8[4:1],5,8,7,6,6,5/6,{24}4,5,3,{8}4,2/6,{16}1,1,,2/8,2/8,,7x,,
{8}5b/6b,1/8,2/6,{16}3,4,2-5[8:1],5,1,6,{8}2,8,2/6,4/5,3/7,{16}2,1,3-8[8:1],8,4,7,{8}3,5,
3/7,1/8,2/6,{16}3,4,2-6[8:1],5,1,6,{8}2,8,1b/7b,,3,2/4,8b,1b/7b,2b/6b,,
4b/5b,3/7,5/6,{16}7,8,6-1[8:1],1,5,2,{8}6,4,2/6,4/5,3/7,{16}2,1,3,8,4,7,{8}5/6,5/6,
{2}D8/E8/B8f/E1/D1,E2/B1/Cf/B5/E6,{4}D8/E8/B8f/E1/D1,E2/B1/Cf/B5/E6,D4/E4f/B3/E3/D3/B4/E5/D5,8x,
{16}7h[8:1],,5,6h[8:1],,4,5h[8:1],,3,4h[8:1],,3,4,,2/5,,2h[8:1]/5,,4,3h[8:1],,5,4h[8:1],,6,5h[8:1],,6,5,,7/4,,
3h[8:1]/8,,1,2h[8:1],,8,1h[8:1],,7,8h[8:1],,7,8,,7/8,,{1}2>3-5b[4:1]/6v1[4:1],
{16}7/5,,6,5,,5,4,,4,3,,3,4,,2/5,,2/5,,3,4,,4,5,,5,6,,6,5,,4/7,,
3/8,,2,1,,1,8,,8,7,,7,8,,1/8,,{4}2b-5[8:1]/7b,6b-1[8:1],2b-7b[8:1],5b,
{1}6hx[4:12]/8xp1s5-7-4-1-3[4:12],,
,{4},,3/6,4/5,
4/3,2h[16:3]/5h[16:3],{8},3/4,3/4,,{4}5/6,7h[16:3]/4h[16:3],{8},6/5,6/5p4[4:3],,
{1}7h[4:3],{2}4h[4:1]/6-8[8:1],1xs5[4:1]/8x,
{4}E6,B6,B7,E8,1h[4:3]/8x,8x,8x,8x,
8x-5b[4:2],B2,B3,E4,Ch[4:3],5x,6x,7x,
{8}1/8,1,2/1,2,3/2,3,4/3,4,5/4,5,6/5,6,7/6,7,8/7,8,
{16}7,1,7,1,7,1,7,1,{32}6,5,4,3,2,1,8,7,6,5,4,3,2,1,8,7,{4}6bx/2bx-4[8:1],2bx/5bx-8[8:1],5bx/4bx,2-5b[8:1]/7-4b[8:1],
2b/7b,{16}1/2,1/2,,3/8,,5/6,,3/4,3/4,,1/7,,2/6,,3,4,1,8,5,6,1>4-8[4:1],8,2,6,1,,5,,
7b,,,,7/8,7/8,,4/6,,3/5,,1/2,1/2,,3/5,,4/8,,7,5,6,3,4,2h[8:1],,8,8,,3-8[8:1],5,2,6,
3b,,,,1/7,1/7,,5/6,,3/4,,2/5,2/5,,7/1,,3/8,,6,5,8,1,4,3,8<5-1[4:1],1,7,5,8,,3,,
2b-5[8:1],,,1,2,,8,,7b-4b[8:1]/4b,,,8,7,,1,,{4}2b-7[8:1]/5,2b/6b-3b[8:1],2b-5[8:1]/6b-1b[8:1],2b/6b,
{16}3b/7b,,4/5,,6,5,7,2,1-6b[8:1],3,4-8[8:1],2,1,,4,,7x,,2/6,,3,5,4,7,5,6,8,7,3,4,1,8,
3b/7b,,4/5,,6,5,7,2,1-6b[8:1],3,4-8[8:1],2,1,,4,,7x,,1/7,,6,4,5,2,4,3,8,1,7-3b[8:1],8,6,8,
7b,,,,2,1,3,6,5-2b[8:1],7,8-4[8:1],6,5,,8,,3x,,2/6,,7,8,6,2,1,3,6,5,7,2,1,3,
{4}8-4[8:1],8/2-6[8:1],2/5-8[8:1],5/1>4[8:1]*<6[8:1],1,8x,{8}1/7,2/6,3/5,4/6,
{16}3b/7b,,,,2-4-1[16:3],1,2,1-7-3[16:3],{4},,4x/6x,{16}8,2,8,2,{4}8bq4[8:1]*p4b[8:1],8b,
2b/6b,{16}3-1-5-2[8:3],4,3,4,{4},,8x-4b[8:1],8bx/1bx,{16}3/5x,3/5x,,4x/6,4x/6,,7x/3,,
8b/2bx,,,,7-5-8[16:3],8,7,8-2-6[16:3],{4},,5x/3x,{16}1,7,1,7,1,,2bxh[8:1]/8bxh[8:1],,,3bxh[8:1]/7bxh[8:1],,,
4bx/6bx,,,,{16}2,5,3,4,2,5,3,6,4,7,5,,{4}7<4[8:1]/8>3[8:1],{32}E1/E7,E2/E6,E3/E5,,{16},,3x,4x,,6x,5x,,3/7,,
3x/7x,,,,3,4,3,4,2x/5x,,,,6,5,6,5,{4}4x/7x,3x/4x,1xw5[8:1]/2x,A1f,
3b/7b,{16}1/6,,7,8,,1/6,,3,4-8[8:1],,2/5,,{4}3b/4,{16}1/6,,7,8,,1/6,,3,4-8[8:1],,2/5,,
{4}3b/4,{16}1/7,,3,4,,5/6,,3/7,7-3b[8:1]/3-7[8:1],,2/8,,{8}Cf,,1,1,2b/8b,4b/6b,3b-8[8:1]/7b-4[8:1],,
3bx/7bx,,1/5,{16}2,4,3,5,4,6,5-1[8:1],,4/7,,6b/5,,7,,2/8,,7,5,6,4,5,3,4,,2/6,,
1,8,1,8,2,7,2,7,{32}3,4,5,6,7,8,1,2,{8}3-7[8:1]/5-1[8:1],4,5bx/3b,
