&title=MAGENTA POTION
&artist=EmoCosine
&first=0.78
&des=Jack
&lv_5=13+
&inote_5=(150){1}8h[1:1],
{8}5h[4:1],,,7/5,,,5/6,{16}3,3,{8}4h[4:1],,,2/4,,,3/4,{16}6,6,
{8}5h[4:1],,,7/5,,,4/5,{16}3,3,{4}4v1[8:1],2,{16}8h[16:3],,,7h[16:3],,,6,,
6-4[8:1],,,,3,,,,1h[16:3],,,2h[16:3],,,3,,3v6[8:1],,,,8,,,,7h[16:3],,,6h[16:3],,,5,,
5-1[8:1],,,,2,,,,4h[16:3],,,3h[16:3],,,1,,2/8,,6,5,7,,3,4,2,,8,1,{8}2x/7x,,
3v5>4-8[8:3]/5,,7,7h[4:1],,,1/7,3,{4}5<8[4:1],8p2[4:1],2>5[4:1],1,
8h[4:1],{8}7,1/6-4[8:1],,3h[4:1],,4,2/5,{16}6,5,7,,3,4,2x,,8,8,1b,,,,
{8}2/6,2,2/4,2,3/7,3,3/5,3,6/2,6,6/4,6,7/3,7,7/5,7,
{12}4,3,2,8,7,6,3,2,1,7,6,5,{4}8x>3[8:1]/4x<7[8:1],,{8}1-5[8:1]/2-4[8:1],8,1b/2b,,
7xh[16:11]/6x,,6,,6,{16},6,7,,6x/7x,,{8}8xh[16:11]/5x,,5,,5,{16},5,8,,5x/8x,,
{8}6xh[16:11]/7x,,7,,7,{16},7,6,,7x/6x,,{8}5xh[4:2]/8x,,8,,8<5[8:1],5,8x,,
3xh[16:11]/2x,,2,,2,{16},2,3,,2x/3x,,{8}1xh[16:11]/4x,,4,,4,{16},4,1,,{8}4x/1x,
2x/3x,,5/8,2x/3x,,5/8,2x/3x,1/4,{4}3h[8:1]/2-8[8:1],2-4[8:1]/5h[8:1],2-6[8:1]/7h[8:1],1x/2x,
{8}7/8,1,2/4,5,3/7,{16}2,1,2,,6,5,{8}7-4[8:1],8,4,3,2/6,{16}7,8,7,,3,4,
{8}2>5[8:1],1,5,6,3/7,{16}2,1,2,,6,5,7,,3,4,{8}2,1/5,8<3[8:1]/7<3[8:1],1,7x/8x,,
{8}2/1,8,7/5,4,6/2,{16}7,8,7,,3,4,{8}2v5[8:1],1,5,6,7/3,{16}2,1,2,,6,5,
{8}7h[4:1],,8,5/6,3/4,1/2,3/8,{16}7,5,{4}6v1[8:1],6/4<7[8:1],4/8w4[8:1],8b,
2h[8:7]/6,,,{8},4,3/5h[8:3],,,4,{16}5,,,4/6,,,3/7,,
{4}7h[8:7]/3,,,{8},5,6/4h[8:3],,,5,5-1b[8:1],4,,,
8/2,8,8/4,8,3/7,7,7/5,{16}6,6,{8}4,4,5/4,4,3/7,3,3/4,{16}2,2,
{12}8,7,6,4,3,2,7,6,5,3,2,1,{4}E6f/B5/B6,E3f/B2,A8f,4bw8[8:1],
,3V57[8:1]/5,1<3[8:1],3V57[8:1],1<3[8:1],3V57[8:1],1<3[8:1],3-7[8:1],
1b,6V42[8:1]/4,8>6[8:1],6V42[8:1],8>6[8:1],6V42[8:1],8>6[8:1],5xbh[4:8],
{8}7,4,6,3,7,4,6,3,7,4,6,3,7,4,{4}6<8[8:1],
4<6[8:1],2>4[8:1],8>2[8:1],6,{8}3h[8:1],4,6h[8:1],5,1h[8:1],2,8h[8:1],7,
{4}3x/5x,6V42[8:1]/4,8>6[8:1],6V42[8:1],8>6[8:1],6V42[8:1],8>6[8:1],6V42[8:1],
8b,3V57[8:1]/5,1<3[8:1],3V57[8:1],1<3[8:1],3V57[8:1],1-5[8:1],4x,
{8}2/4x,5,3,4x/6,2,5,3/4x,6,2/4x,5,3,4x/6,2,5,3/4x,6,
2/4xh[8:1],5,3/4xh[8:1],6,2/4x,{16}5,4x,3,,4x/6x,,{4}7<3[4:1],3>7[4:1],7<3[4:1],3b,
1h[4:14],{48}E7,B6,,,,,{8},,,{48}B5,E5,,,,,{8},,,{48}D6,A5,,,,,{8},,,{48}E7,B6,,,,,{8},
,,{48}B5,E5,,,,,{8},,,{48}D6,A5,,,,,{8},,,{48}E7,B6,,,,,{8},{16}4-8[8:1],4,,,5,,,,
{8}1/7,1,2/4,2,3/8,3,4/5,4,8/2,8,7/5,7,6/1,6,5/4,5,
{12}1,2,3,5,6,7,2,3,4,6,7,8,{16}2,1,2,1,3,8,3,8,4x-1[8:1],,5x/6x,,7x,,,,
{4}8b,,,{16},,3/4,3/4,{4}1bx/5b,,,{16},,5/6,5/6,
{8}8bx/4b,,,2/5,,4/7,4/7,5/6,1/8,,1/8,,{12}1-5[8:1]/8-4[8:1],1/8,1/8,1bx/8bx,,,
{8}2>5[8:1],6v1[8:1],2,6,3,{16}3,4,2,,7,8,{8}7v4[8:1],3>8[8:1],7,3,6,{16}6,5,7,,2,1,
{8}2>5[8:1],2,2/1,7<4[8:1],7,7/8,2-6[8:1],2,{4}2/1-5[8:1],1/8-4[8:1],8/7-3[8:1],7/3x,
{8}1,2/8,7,5/6,3,2/4,6,7/8,2>5[8:1],5<8[8:1],2,,1>7[4:1],,,,
8,7/1,2,4/3,6,7/5,3,2/1,7p3[8:1],8,1>4[8:1]*<6[8:1],,,,2h[8:1]/8h[8:1],,
3qq5[8:3]/7,,6,8h[4:1],,,1/7,{16}3,4,{8}2,1/8,6,5/7,3,2/4,8,1/7,
{12}2,2,2,4,4,4,5,5,5,7,7,7,{16}2,1,3,8,4,7,5,6,{32}2,3,4,5,6,7,8,1,{4}2b/6b,
{8}8xh[8:5],,5,,,{16}5,6,5,,4/7,,{8}1h[8:5],,4,,,{16}4,3,4,,5/2,,
{8}8,7,2,3,5h[8:1],,3h[8:1],,4,5,3,2,7-4-6[8:1],8,,,
2x,3,6,5,,{16}3,4,{8}2,1/5,7,6,3,4,,{16}6,5,{8}7,4/8,
1x/2x,3,6h[8:1],5,8x/7x,6,3h[8:1],4,1x/2x,{16}3,8,4,7,5,6,4,5,3,4,2q5[8:7],5,6,7,
{1}8h[8:7],
