&title=Let you DIVE!
&artist=HARDCORE TANO*C & エリザベス(CV:大西沙織)
&des_4=翠楼屋
&des_5=じゃこレモン
&lv_2=3
&lv_3=7+
&lv_4=11
&lv_5=12+
&inote_2=
(185){1},
{1},
{1},
{1},
{1},
{1}1h[1:2],
{1},
{1},
{1},
{1}1,
{1}1,
{1}1,
{1},
{1}8h[1:2],
{1},
{1},
{1},
{1}8,
{1}8,
{1}1h[1:1]/8h[1:1],
{1},
{2}8,8,
{1}8,
{2}7,7,
{1}7,
{2}6,6,
{1}6,
{2}5,5,
{1}4/5,
{2}4,4,
{1}4,
{2}3,3,
{1}3,
{2}2,2,
{1}2,
{2}1,1,
{1}1/8,
{1}8-5[4:3],
{1},
{1}1-4[4:3],
{1},
{1}8-5[4:3],
{1},
{1}1-4[4:3],
{1},
{1}B5,
{1}B4,
{1}B6,
{1}B3,
{1}B7,
{1}B2,
{1}B8,
{1}C1,
{2}1,1,
{2}2,2,
{2}3,3,
{1}3/4,
{2}5,5,
{2}6,6,
{2}7,7,
{1}7/8,
{1}8-4[4:3],
{1},
{1}3-7[4:3],
{1},
{1}8-3[4:3],
{1},
{1}2-6[4:3],
{1},
{4}8b,8,8,,
{4}7,7,7,,
{4}6,6,6,,
{2}4/5,4/5,
{4}4,4,4,,
{4}3,3,3,,
{4}2,2,2,,
{1}1x/8x,
{4}1,1,1,,
{4}2,2,2,,
{4}3,3,3,,
{2}4/5,4/5,
{4}5,5,5,,
{4}6,6,6,,
{4}7,7,7,,
{2}1x/8x,1x/8x,
{1}1x-4[4:3]/8x-5[4:3],
{1},
{1},
{1},
{1}B4/B5,
{1}B3/B6,
{1}B2/B7,
{1}C1h[1:1],
{1},
{1},
{1},
E
&inote_3=
(185){1},
{1},
{1},
{1},
{1},
{2}3h[2:1],4h[2:1],
{2}5h[2:1],6,
{2}6h[2:1],5h[2:1],
{2}4h[2:1],3,
{2}2h[2:1],3h[2:1],
{2}4h[2:1],5,
{2}7h[2:1],6h[2:1],
{2}5h[2:1],4,
{2}2h[2:1],3h[2:1],
{2}4h[2:1],5h[2:1],
{2}6h[2:1],7h[2:1],
{1}8,
{2}7h[2:1],6h[2:1],
{2}5h[2:1],4h[2:1],
{2}3h[2:1],2h[2:1],
{1}1,
{1}1-6[4:3]/2-5[4:3],
{2},7/8,
{4}6,6,6,,
{4}5/6,5/6,5/6,,
{1}7-4[4:3]/8-3[4:3],
{2},1/2,
{4}3,3,3,,
{4}3/4,3/4,3/4,,
{4}2,2,3,3,
{4}4,4,5/6,,
{4}7,7,6,6,
{4}5,5,3/4,,
{4}2,2,3,3,
{4}4,4,5/6,,
{4}7,7,6,6,
{1}4b/5b,
{8}3x/5x,,,3x/5x,,,3xh[4:3]/5xh[4:3],,
{1},
{4}2,2,3/4,3/4,
{4}5,5,5/6,,
{8}4x/6x,,,4x/6x,,,4xh[4:3]/6xh[4:3],,
{1},
{4}7,7,5/6,5/6,
{4}4,4,3/4,,
{4}2,2,1/2,1/2,
{4}3,3,3/4,3/4,
{4}5,5,5/6,5/6,
{4}7/8,7/8,7/8,,
{4}7,7,7/8,7/8,
{4}6,6,5/6,5/6,
{4}4,4,3/4,3/4,
{1}1b/2b,
{4}B2,B3,B4,,
{4}B7,B6,B5,,
{4}B1,B2,B3/B4,,
{4}B8,B7,B5/B6,,
{4}E2,E3,E4,E5,
{4}E6,E7,E1/E2/E8,,
{4}B6,B5,B4,B3,
{1}C1,
{4}B6,B7,B8,,
{4}B3,B2,B1,,
{4}B5,B6,B7/B8,,
{4}B4,B3,B1/B2,,
{4}E6,E7,E8,E1,
{4}E2,E3,E4/E5/E6,,
{4}B2,B1,B8,B7,
{1}C1f,
{4}1/2,1/2,3,4,
{4}5,6,5/6,,
{4}7/8,7/8,6,5,
{4}4,3,3/4,,
{4}5/6,5/6,7,8,
{4}1,2,1/2,,
{4}3/4,3/4,2,1,
{4}8,7,7b/8b,,
{8}1/2,,1/2,,3,3,3,,
{4}4,5,5/6,,
{8}7/8,,7/8,,6,6,6,,
{4}5,4,3/4,,
{8}5/6,,5/6,,7,7,7,,
{4}8,1,1/2,,
{8}3/4,,3/4,,2,2,2,,
{4}1/8,1/8,1b/8b,,
{1}1<6[4:3]/2>5[4:3],
{1},
{1}4-1[4:3]/5-8[4:3],
{1},
{1}7<4[4:3]/8>3[4:3],
{1},
{1}4-1[4:3]/5-8[4:3],
{1},
{1},
{1},
E
&inote_4=
(185){1},
{1}5h[1:3],
{1},
{1}4h[1:1],
{1},
{4}3xh[2:3]/5x,5,5,5,
{4}4,4,5,5,
{4}4/6h[2:3],4,4,4,
{4}5,5,4,4,
{4}3h[4:7]/5,5,4,4,
{4}5,5,4,4,
{4}5,5,4/6,4/6,
{4}7,6,3/5,,
{4}4/6xh[2:3],4,4,4,
{4}5,5,4,4,
{4}3h[2:3]/5,5,5,5,
{4}4,4,5,5,
{4}4/6h[2:1],4,5,4,
{4}3h[2:1]/5,5,4,5,
{4}4/6,4/6,3/5,3/5,
{1}2>5[8:3]/6<1[8:3],
{8}1x,1x,,2x/8x,2x/8x,,3xh[4:3]/7x,,
{4},,4,3/4,
{2}2-6[4:1],7-3[4:1],
{4}2-6[4:1],,7,7,
{8}8x,8x,,1x/7x,1x/7x,,2x/6xh[4:3],,
{4},,5,5/6,
{2}7-3[4:1],2-6[4:1],
{4}7-3[4:1],,2,2,
{8}2/5,,3/4,,6,6,5,,
{8}4/7,,5/6,,3,3,4,,
{8}2/5,,1/6,,7,7,8,,
{8}4/7,,3/8,,2,2,1,,
{4}3h[4:1]/8,8,2,2/4,
{4}1/5h[4:1],1,2,3/4,
{8}5,5,4,4,6,6,3,3,
{1}7bp3[2:1],
{8}1bxh[4:1]/2bxh[4:1],,,3bxh[4:1]/8bxh[4:1],,,4bx/7bxh[4:3],,
{8},,,,5,5,,4/6,
{8}4h[4:1]/6h[4:1],,,4h[4:1]/6h[4:1],,,4/6,,
{8}7,,8,,1x/7x,1x/7x,,,
{8}7bxh[4:1]/8bxh[4:1],,,1bxh[4:1]/6bxh[4:1],,,2bxh[4:3]/5bx,,
{8},,,,4,4,,3/5,
{8}3h[4:1]/5h[4:1],,,3h[4:1]/5h[4:1],,,3/5,,
{8}2,,1,,2x/8x,2x/8x,,,
{4}6xh[4:1],5,5/6,4/5,
{4}3h[4:1],4,3/4,4/5,
{4}6h[4:1],5,4/7,4/7,
{4}3h[4:1],4,2/5,2/5,
{4}3h[4:1],2h[4:1],1h[4:1],8h[4:1],
{4}7h[4:1],6h[4:1],5,5/6,
{8}4,4,5,5,3,3,6<3[2:1],,
{4},,,4x/5x,
{8}2b/6b,,3,3,4,2h[4:1],,1,
{8},7/8,,5/6,,3/4,,2/5,
{8}2/5,,6,6,5,7h[4:1],,8,
{8},1/2,,3/4,,5/6,,4/7,
{8}4/7,,7,7,8,6h[4:1],,5,
{8},3/4,,1/2,,7/8,,1/6,
{8}1x/6x,,2,2,4,4h[4:1],,3,
{8}3bx/4bx,,5bx/6bx,,7,7,4/7,,
{8}1x/8x,,2,2,4,3h[4:1],,1h[4:1],
{8},8h[4:1],,6h[4:1],,5,,4/7,
{8}4/7,,6,6,5,7h[4:1],,2h[4:1],
{8},4h[4:1],,5h[4:1],,7,,7/8,
{8}7/8,,1,1,8,2h[4:1],,1x,
{8},3/4,,5/6,,7/8,,1/6,
{4}1/6,2b/5b,3/4,4/5,
{4}3h[2:1]/6,,8,1/7,
{4}3b/4b,1/8,5/6,2/4,
{4}7/8,5/6,1/2,4/5,
{2}3/8-4b[8:1],6/1-5b[8:1],
{4}7/8,7/8,1/6,1/6,
{4}3/4,1/8,5/6,2/4,
{4}1/8,5/7,3/4,2/5,
{2}6/1-5[8:1],3/8-4[8:1],
{8}1/2,,1/2,,8,8,1/8,,
{4}2/7,5/6,2/3,7/8,
{4}1/6,2/3,5/6,4/7,
{2}1/2-6[8:1],8/7-3[8:1],
{4}1/2,3/8,7/8,1/6,
{8}2,2,8,8,1,1,7,7,
{16}1,8,1,8,1,8,1,8,1,8,1,8,1bx,,,,
{8}1x/2x,1x/2x,3bx/8bx,,7x/8x,7x/8x,1bx/6bx,,
{4}1-5[8:1],8-4[8:1],1,3/5,
{1}2bx/6bx,
{1},
{1}B1/E1/A1/B8/A8,
{1}C1/B4/A4/B5/A5,
{1}A6/D6/A7/D7/D8,
{1},
{1}B5/B6/B7/B8,
{1}C1h[1:1]/B4/A4/B5/A5,
{1},
{1},
{1},
E
&inote_5=
(185){1},
{32}E5,B4,B3,,,,,,,,,,,,,,,,,,,,,,,,,,,,,,
{1},
{32}E5,B5,B6,,,,,,,,,,,,,,,,,,,,,,,,,,,,,,
{32}B4/B5,B3/B6,E3/E7,,,,,,,,,,,,,,,,,,,,,,,,,,,,,,
{4}3xh[4:9]/6x,6,5,5,
{4}4,4,5,5,
{4}6,6h[1:2],4,4,
{4}5,5,4,4,
{4}3,3h[4:7],5,5,
{4}4,4,5,5,
{8}6<2[4:3]<6[384:287],,5,,4,,3,3h[8:7],
{1},
{4}2x,2h[4:7],3,3,
{4}1,1,8,8,
{4}7,7h[4:7],6,6,
{4}8,8,1,1,
{4}2,2h[4:7],3,3,
{4}1,1,8,8,
{8}7,6,5,4,3,2,1,8,
{8}8-4[8:1],,3,3-7[8:1],,6,6,,
{8}1x,1x,,3x/7x,3x/7x,,C1h[4:3]/2xh[4:3],,
{4},,,1/8,
{4}6<3[2:1],B1/B8,,B4/B5,
{4}3>6[2:1],B1/B8,,B4/B5,
{8}8x,8x,,2x/6x,2x/6x,,C1h[4:3]/3xh[4:3],,
{4},,,1/8,
{4}7<2[2:1],B4/B5,,B1/B8,
{4}2>7[2:1],B4/B5,,B1/B8,
{8}5xh[4:1],,2,,4h[4:1]/6,7,7,,
{8}3/5h[4:1],,2,,4h[4:1]/6,7,7,,
{8}4/3<6[4:1],,7,7>2[4:1],,3-7[8:1],,,
{8},5,4/6,4,3/5,5,4/6,,
{4}8x/1x-5[8:1],E7,8x-4[8:1],E3,
{4}1xq5[8:1],B6/A6,8xp4[8:1],B3/A3,
{16}1/2,,,,7/8,,,,6,5,6,5,6,5,6,5,
{1}6xz2[2:1],
{8}4bxh[4:1]/5bxh[4:1],,,3bxh[4:1]/7bxh[4:1],,,2bxh[8:7]/6bxq3[4:1],,
{8},,,,4,4,,5/6,
{8}5h[4:1]/6h[4:1],,,7h[4:1]/8h[4:1],,,1/2,,
{4}5/4qq4[4:1],4pp4b[4:1],,,
{8}4bxh[4:1]/5bxh[4:1],,,2bxh[4:1]/6bxh[4:1],,,7bxh[8:7]/3bxp6[4:1],,
{8},,,,5,5,,3/4,
{8}3h[4:1]/4h[4:1],,,1h[4:1]/2h[4:1],,,7/8>4[4:1],,
{4}4<8[4:1],8>4b[4:1],4,B1/E1f/B8,
{4}5x/6xh[8:1],4/6h[8:1],5/6h[8:1],3/6h[8:1],
{4}5/6h[8:1],2/6h[8:1],5/6h[8:1],1/6h[8:1],
{4}3xh[8:1]/4x,3h[8:1]/5,3h[8:1]/4,3h[8:1]/6,
{4}3h[8:1]/4,3h[8:1]/7,3h[8:1]/4,3h[8:1]/8,
{8}3x/4xh[8:1],3,3/5h[8:1],3,3/6h[8:1],3,3/7h[8:1],3,
{8}4xh[8:1]/8x,8,3h[8:1]/8,8,2h[8:1]/8,8,1/8,,
{16}7x,8,7,8,7x,8,7,8,7x,6x,5x,4x,3x,2x,1x,8x,
{8}3bx/7bx,,4,3/5,2/6,1/7,,C1f/6h[1:2],
{8},,1,1,8,1,,2-7[8:1],
{8},,,5-2[8:1],,,,1,
{8}1x/7x,,2,2,8,1-5[8:1],,7-4[8:1],
{8},3-7[8:1],,6-1[8:1],,2,,4,
{8}3x/5x,,7,7,1,8-4[8:1],,2-5[8:1],
{8},6-2[8:1],,3-8[8:1],,7,,5,
{8}4x/6x,,2,2,8,1/8,,5/6,
{16}5b/6b,,,,3b/4b,,,,2,1,2,,3b/8b,,,,
{8}4x/5x,,2,2,8,1q5[8:1],,7<4[8:1],
{8},3p7[8:1],,6<1[8:1],,2,,4,
{8}3x/5x,,7,7,1,8p4[8:1],,2>5[8:1],
{8},6q2[8:1],,3>8[8:1],,7,,5,
{8}4x/6x,,2,2,8,1q5b[8:1],,7<4b[8:1],
{8},3p7b[8:1],,6<1b[8:1],,2,,3,
{1}2bxh[1:1]/4bxqq8[2:1],
{8}7h[8:5],,3,4,5,6,,7/8,
{8}1-5[8:1],8,7,6-4[8:1],3,2,1w5[4:1],,
{8},,,,3/7,3/7,,2/6,
{4}2/6q2[8:1],A6f/4,3p7[8:1],A3f/5,
{8}6,5,4,3,B1/E1/B8,B4/B5/E5,,,
{8}8-4[8:1],1,2,3-5[8:1],6,7,8w4[4:1],,
{8},,,,2/6,3/5,,4/7,
{2}5b-1b[8:1]/6b-1b[8:1],3pp4[4:1]*V14[4:1],
{16},,,,2/5,,3,4,3,,1b/2b,,1b/8b,,,,
{8}1q5[8:1],8,7,6qq4[8:1],3,2,1w5[4:1],,
{8},,,,3/7,7/3-7[8:1],,6,
{8}6,,1/5,2,3/7,6,5/1<6[8:1],,
{4}7xh[2:1]/1x>4[8:1],1x-5[8:1],1x,2/8,
{8}3x/4x,3/4,2/5,2/5,1/6,1/6,7/8,7/8,
{16}6x,5,6,5,6,5,6,5,6,5,6,,4x/7x,,,,
{8}3x-7[8:1]/4x-8[8:1],3/4,,,5x-1[8:1]/6x-2[8:1],5/6,,,
{4}8/7-4[8:1],7/2-5[8:1],1/2,3b/8bw4b[2:3],
{1},
{1},
{1}2-4[8:1]v5[384:95]-7[384:47],
{1}2h[4:3]/5-1[4:1]-3[384:95],
{8}4/5h[8:3],,,3h[8:3],,,1<4[2:1],,
{1},
{1}3/4<1[2:1],
{1}7h[8:7]/4-8[4:1]-6[8:3],
{1},
{1},
{1},
E
