&title=INTERNET OVERDOSE
&artist=Aiobahn feat. KOTOKO
&first=-0.05
&wholebpm=163
&genre=ゲームバラエティ
&cabinet=DX
&version=maimai DX FESTiVAL
&des_4=ロシェ@ペンギン
&des_5=サファ太
&lv_2=4
&lv_3=7
&lv_4=10+
&lv_5=13
&inote_2=
(163){1},
{1},
{1},
{1}1h[1:1],
{1},
{1}1x,
{1}1,
{1}8h[1:1],
{1},
{1}8,
{1}1/8,
{1}1,
{1}2,
{1}3,
{1}4,
{1}5,
{1}6,
{1}7,
{1}1x/8x,
{1}7h[1:1]/8h[1:1],
{1},
{1}5xh[1:1]/6xh[1:1],
{1},
{1}3h[1:1]/4h[1:1],
{1},
{1}1h[1:1]/2h[1:1],
{1},
{2}1x,1,
{1}2,
{2}3,3,
{1}4/5,
{2}5,5,
{1}6,
{2}7,7,
{1}1/8,
{1}1-4[4:3],
{1},
{4},5,,,
{1}5-8[4:3],
{1},
{4},1,,,
{1}1-4[4:3],
{1},
{4},5,,,
{1}5-8[4:3],
{1},
{4},8x,,,
{1}B1,
{1}B8,
{1}B2,
{1}B7,
{1}B3,
{1}B6,
{1}C1h[1:1],
{1},
{4}8bx,8,8,,
{2}7,7,
{2}6,6,
{1}4/5,
{4}4,4,4,,
{2}3,3,
{2}2,2,
{1}1x/8x,
{2}2,2,
{1}1/2,
{2}3,3,
{1}3/4,
{2}6,6,
{1}5/6,
{2}7,7,
{1}7/8,
{1}1b,
{1},
{1}1h[1:1]/8h[1:1],
{1},
{1}8-4[4:3],
{1},
{1}1-5[4:3],
{1},
{2}8,8,
{2}1,1,
{2}1/8,1/8,
{1}1bx/8bx,
{4}8,8,8,,
{4}7,7,7,,
{4}6,6,6,,
{2}4/5,4/5,
{4}4,4,4,,
{4}3,3,3,,
{4}2,2,2,,
{2}1x/8x,1x/8x,
{4}2,2,2,,
{2}1/2,1/2,
{4}3,3,3,,
{2}3/4,3/4,
{4}5,5,5,,
{2}5/6,5/6,
{4}7,7,7,,
{2}1/8,1/8,
{1}2xh[1:3]/7xh[1:3],
{1},
{1},
{1},
(153){1}B1/B8,
(130){2}B2/B7,(120),
(110){2}C1h[64:69]/B3/B6,(95),
{1},
{1},
{1},
E
&inote_3=
(163){1},
{4}4x,4x,5x,5x,
{4}4x/5x,4bx/5bx,,,
{2}3h[2:1],4h[2:1],
{2}5h[2:1],6,
{2}6h[2:1],5h[2:1],
{2}4h[2:1],3,
{2}2h[2:1],1bx,
{2}7h[2:1],8bx,
{4}6,6,5,5,
{1}3b/4b,
{4}2,2,1/2,,
{4}3,3,3/4,,
{4}5,5,5/6,,
{4}7/8,7/8,7/8,,
{4}7,7,7/8,,
{4}6,6,5/6,,
{4}4,4,3/4,,
{4}1/2,1/2,1/2,,
{4},2,,2,
{4},3,,3,
{4},4,,4,
{4},5/6,,5/6,
{4},7,,7,
{4},6,,6,
{4},5,,5,
{1}4x/5x,
{1}2-5[2:1],
{1}6-1[2:1],
{1}2>5[2:1],
{4}6,6,5/6,,
{1}7-4[2:1],
{1}3-8[2:1],
{1}7<4[2:1],
{4}3,3,3/4,,
{4}2h[4:3],,,3h[4:3],
{2},4h[4:3],
{4},5,,,
{4}7h[4:3],,,6h[4:3],
{2},5h[4:3],
{4},4,,,
{4}3h[4:3],,,2h[4:3],
{2},1h[4:3],
{4},8,,,
{4}6h[4:3],,,7h[4:3],
{2},8h[4:3],
{4},1bx,,,
{4}2,2,3,3,
{4}4,4,5/6,,
{4}7,7,6,6,
{4}5,5,3/4,,
{4}2,2,3,3,
{4}4,4,5/6,,
{4}7,7,6,6,
{1}4h[2:1]/5h[2:1],
{4}3,3,1/2,1/2,
{4}8,8,7/8,,
{4}6,6,7/8,7/8,
{4}1,1,1/2,,
{4}3,3,1/2,1/2,
{4}8,8,7/8,,
{4}6,6,7/8,7/8,
{4}1,1,1b/2b,,
{4}2,2,2,1/2,
{4}3,3,3,3/4,
{4}5,5,5,5/6,
{4}7/8,7/8,7/8,,
{4}7,7,7,7/8,
{4}6,6,6,5/6,
{4}4,4,4,3/4,
{4}1/2,1/2,1/2,,
{1}C1fh[1:2],
{1},
{1},
{1},
{4}B2,B3,B4,,
{4}B7,B6,B5,,
{4}B1,B2,B3/B4,,
{4}B8,B7,B5/B6,,
{4}E4,E3,E1/E2/E8,,
{4}E6,E7,E1/E2/E8,,
{4}B3,B4,B5,B6,
{1}C1f,
{4}7/8,7/8,6,5,
{4}4,3,3/4,,
{4}1/2,1/2,3,4,
{4}5,6,5/6,,
{4}3/4,3/4,2,1,
{4}8,7,7/8,,
{4}5/6,5/6,7,8,
{4}1,2,1b/2b,,
{4}2,2,2,1/2,
{4}3,3,3,3/4,
{4}5,5,5,5/6,
{4}7/8,7/8,7/8,,
{4}7,7,7,7/8,
{4}6,6,6,5/6,
{4}4,4,4,3/4,
{4}1/2,1/2,1/2,,
{2}3h[2:1],2h[2:1],
{2}1h[2:1],8,
{2}6h[2:1],7h[2:1],
{2}8h[2:1],1,
(153){1}1xh[2:1]/8xh[2:1],
(130){2}2xh[2:1]/7xh[2:1],(120),
(110){2}3xh[2:1]/6xh[2:1],(95),
(90){1}4bx/5bx,
{1},
{1},
{1},
E
&inote_4=
(163){1},
{4}1bx,3bx,5bx,7bx,
{16}1bx,,,,2/7,,2/7,,,,1bx,8bx,1bx,,,,
{2}7xh[2:1],6h[2:1],
{2}5h[2:1],4bx-8b[4:1],
{2}7h[2:1],5h[2:1],
{1}3-6[2:1]*<6[2:1],
{4}1/8,2,1x/3x,1x/3x,
{4}4,5,4x/6x,4x/6x,
{4}7,6/8,2,3/1-4[4:1]*-6[4:1],
{8},,,,,3x/7x,3x/7x,,
{4}1/2h[4:1],6,7h[4:1]/8,3,
{4}1/2h[4:1],6,7h[4:1]/8,3,
{4}1/2h[4:1],5,7h[4:1]/8,4,
{4}1x/2x,3x/8x,4x/7x,5x/6x,
{4}7h[4:1]/8,3,1/2h[4:1],6,
{4}7h[4:1]/8,3,1/2h[4:1],6,
{4}7h[4:1]/8,4,1/2h[4:1],5,
{4}7x/8x,1x/6x,2x/5x,1b/8b,
{2}7-3[4:1],2-6[4:1],
{4}7-3[4:1],1-5[4:1],,,
{1}1-3[4:1]-5[384:95]*-7[4:1]-5[384:95],
{1}1w5[4:1],
{1}6h[4:7]/5-8[4:1],
{4}8,1,2,3,
{4}4h[4:1],5h[4:1],6h[4:1],7h[4:1],
{1}8z4b[2:1],
{4}3h[4:15],5,4,2,
{4}4,6,5,8,
{4}6,5,4,2,
{4}4-6[8:1],,4,8x,
{4}6h[1:3],4,5,7,
{4}3,4,5,8,
{4}3,4,5,1,
{1}8x>6[2:1],
{4}E1,E8,E7,E6,
{4}E5,E4,E3,E2,
{4}B1/E1/B8,B4/B5/E5,,6,
{4}6>4[8:1],,3,3>1[8:1],
{4},8,8<6[8:1],,
{4}5,5>2[4:1]*<8[4:1],,,
{4}E1,E2,E3,E4,
{4}E5,E6,E3/E7,E4/E8,
{4}E1/E5,E2/E6,,3,
{4}3h[4:1],4h[4:1],5h[4:1],6h[4:1],
{4}7h[4:1],8h[4:1],1<6[2:1]pp5[384:191]*>4[2:1]qq5[384:191],,
{1},
{2}5x-8[4:1],1x-4[4:1],
{4}5xh[4:1],6h[4:1],7,2/8,
{2}4x-1[4:1],8x-5[4:1],
{4}4xh[4:1],2,5h[4:1],7,
{2}5x-8[4:1],1x-4[4:1],
{4}5xh[4:1],6h[4:1],7,2/8,
{4}1/6,3/8,2/5,4/7,
{16}B4/B5/E5f,,,,,,,,,,1bx,8bx,1bx,,,,
{8}3x/4x,,1/7,,6,6,,2/5,
{8},3/4,4/3<6[8:1],,6,,7,7,
{16}8,,,,1/8,,,,2h[16:3],,,3h[16:3],,,4,,
{4}4,5/6,2bh[4:1]/8bh[4:1],,
{8}5x/6x,,2/8,,3,3,,4/7,
{8},5/6,5/6v3[8:1],,3,,2,2,
{16}1,,,,1/8,,,,7h[16:3],,,6h[16:3],,,5,,
{8}5,,3/4,,5/7,8b,8b,,
{4}1/2h[4:1],6,7h[4:1]/8,3,
{4}1/2h[4:1],6,7h[4:1]/8,3,
{4}1/2h[4:1],5,7h[4:1]/8,4,
{4}1x/2x,5x/6x,7x/8x,3x/4x,
{4}1/2h[4:1],6,7h[4:1]/8,3,
{4}1/2h[4:1],6,7h[4:1]/8,3,
{4}1/2h[4:1],5,7h[4:1]/8,4,
{4}1x/2x,5x/6x,7x/8x,3x/4x,
{1}1bx/8bx<1[4:5],
{4},,,1bx/8bx,
{1}8bx/1bx>8[4:5],
{4},,,1bx/8bx,
{8}2,2,4,,7,7,5,,
{8}3,3,4,,6,6,5,,
{8}2,2,1,,7,7,8,,
{1}2qq5[2:1],
{2}5xh[4:1]/7xh[4:1],B6f/E6/A6/D6/B7/E7/D7,
{2}2xh[4:1]/4xh[4:1],B2/B3f/E3/A3/D3/E4/D4,
{4}1/5,2/6,3/7,4/8,
{8}C1f/B2/B3/B4/B5/B6/B7,,,,,1b,1b,,
{8}3x/4x,,1/7,,6,6,,4/5,
{8},3/4,3/4<8[4:1],,8,,2,2,
{16}1,,,,7,,7,,8h[16:3],,,6h[16:3],,,4,,
{4}4,3/5,4bh[4:1]/8bh[4:1],,
{8}5x/6x,,2/8,,3,3,,4/5,
{8},5/6,6/5>1[4:1],,1,,7,7,
{16}8,,,,2,,2,,1h[16:3],,,3h[16:3],,,5,,
{8}5,,4/6,,1/5,8b,8b,,
{4}7xh[4:1]/8x,3,1/2h[4:1],6,
{4}7h[4:1]/8,3,1/2h[4:1],6,
{4}7h[4:1]/8,4,1/2h[4:1],5,
{4}7x/8x,3x/4x,1x/2x,5x/6x,
{4}7xh[4:1]/8x,3,1/2h[4:1],6,
{4}7h[4:1]/8,3,1/2h[4:1],6,
{4}7h[4:1]/8,4,1/2h[4:1],5,
{1}7xh[4:3]/8x>6[2:1],
{1}1xh[2:7]/8b<1[4:5]p8[384:767],
{1},
{1},
{1},
(153){2}2h[384:383],B5,
(130){2}7h[24:25],(120)B4,
(110){4}E3,E2/E4,(95)E1/E5,E6/E8,
(90){2}6xh[4:5],3h[4:3],
{1},
{1},
{1},
E
&inote_5=(163){1},
{4}2bxh[4:1],4bxh[4:1],6bxh[4:1],8bxh[4:1],
{16}1bx,,,,2bx/7bx,,2bx/7bx,,,,1bx,8bx,1bx<3[1:1],,,,
{1}6h[1:2],
{2},1bxh[1:1],
{2},2h[2:1],
{1}3-6b[2:1]*<6b[2:1],
{16}5/6,,,,4/5,,,,3x,4x,3x,4x,3x,,,,
{16}3/4,,,,4/5,,,,6x,5x,6x,5x,6x<1[4:1],,,,
{4}4,2>5[4:1],6,6-1[8:1],
{16}6/7,,,,,,,,,,1bx,8bx,1bx,,,,
{4}8/1-6[8:1],1h[8:1],1/8-3[8:1],8h[8:1],
{4}8/1-6[8:1],1h[8:1],1/8-3[8:1],8h[8:1],
{4}8/1-6[8:1],1h[8:1],1/8-3[8:1],8h[8:1],
{8}1<6[8:1]*>4[8:1],,1,,3x/7x,2bx/8bx,2bx/8bx,,
{4}8/1-6[8:1],1h[8:1],1/8-4[8:1],8h[8:1],
{4}8/1-5[8:1],1h[8:1],1/8-3[8:1],8h[8:1],
{4}8/1-6[8:1],1h[8:1],1/8-4[8:1],8h[8:1],
{4}8/1-5[8:1],1<6[8:1]*>4[8:1],1,4bx/6bx,
{16}3-7[8:1],4,3,4,,,,,5-1[8:1],4,5,4,,,,,
{16}2,8,2,8,3v1[8:1],7v5[16:1],3,7,,,,,,,,,
{16}6,7,8,1,2,3,4,5,6,,,,5/7,,,,
{16}3,2,1,8,7,6,5,4,3,,,,2/4,,,,
{8}3h[4:1]/5h[4:1],,,,6h[4:1],5,5,,
{8}4h[4:1]/6h[4:1],,,,3h[4:1],4,4pp8[2:1],,
{4}2h[4:3],,,7<4[4:1],
{1}1s5b[2:1],
{16}6,5,6,5,7,5,7,5,8,,7,,4/6,,6,,
{16}3,4,3,4,2,4,2,4,1,,2,,3/5,,3,,
{16}6,5,6,5,7,5,7,5,8,,7,,3/6,,2,,
{2}1-4[8:1]*>4[8:1],8-5[8:1]*q5[8:1],
{16}2,4,2,4,3,4,3,4,2,,1,,2/8,,8,,
{16}7,5,7,5,6,5,6,5,7,,8,,1/7,,2/6,,
{16}3,5,3,5,4,6,4,6,3,7,3,7,2-6[8:1],,1,,
{4}2b/8,8,7,7,
{4}6/5>1[4:1],8,6,4<8[4:1],
{4}1,3,5>1[4:1],8,
{4}6,4,1,2,
{4}3/4<8[4:1],1,3,5>1[4:1],
{4}8,6,4<8[4:1],1,
{4}3,5,8,6,
{4}3/5<1[4:1],1,3,4>8[4:1],
{4}8,6,5<1[4:1],1,
{4}2,1/3,2/4,3/5,
{4}4/6h[4:1],7h[4:1],8h[4:1],1h[4:1],
{4}2h[4:1],3qq3[16:9]pp3[4:3],,,
{1},
{2}5-7[8:1]*qq5[8:1],1-3[8:1]*qq1[8:1],
{8}4x,5,6,7,8-4[8:1],3-1[8:1],8,3,
{2}5-7[8:1]*qq5[8:1],1-3[8:1]*qq1[8:1],
{8}4x,5,4/6,3,2/4,1,2x/8x,,
{16}7h[16:3],,,6h[16:3],,,5,,4/7-3[8:1],,,,1,,1,,
{16}2h[16:3],,,3h[16:3],,,4,,2-5[8:1]/5-1[8:1],,,,,,,,
{16}1x,,,2x/8x,,,4,,4,,3,,2/4<2[8:3],,3/5,,
{16}4/6,,,,,,,,,,8bx,1bx,8bx<4[8:1]*>4[8:1],,,,
{16}8x,,,,1x/7x,,,2,2/5,,3,,4/6,,7,,
{8}3/6>3b[8:1],7,1h[4:1]/6,,8bx,,7/8,1/6,
{16}2/5-1[8:1],,,,4/5,,,,2h[16:3],,,1,2,,3/8,,
{8}4/7,5/6,7-3[8:1],,3/7,1b,1bp4[8:1]*q6[8:1],,
{16}1x,,,,2x/8x,,,7,4/7,,6,,3/5,,2,,
{8}4-2[8:1]/6-8[8:1],7,4/6,,1x,,1/2,3/8,
{16}4/7,,5/6,,2/5,,3/4,,6h[16:3],,,5x,6x,,4/7,,
{8}3-8[8:1]/8-5[8:1],,3/8,,1/7,2b/8b,2b/8b,,
{4}2/1-6[8:1],1h[8:1],7/8-3[8:1],8h[8:1],
{4}1/2-5[8:1],2h[8:1],8/7-4[8:1],7h[8:1],
{4}2/1-6[8:1],1h[8:1],7/8-3[8:1],8h[8:1],
{8}4>1[8:1],,4<7[8:1],,4,1bx,2bx/8bx,,
{4}2/1-6[8:1],1h[8:1],7/8-3[8:1],8h[8:1],
{4}1/2-5[8:1],2h[8:1],8/7-4[8:1],7h[8:1],
{4}2/1-6[8:1],1h[8:1],7/8-3[8:1],8h[8:1],
{8}4>1[8:1]*<7[8:1],,4,,1x/7x,2b/8b,8b/2bpp5[4:7],,
{1}B3/B4/E4f,
{4},,,6bx,
{1}6bxpp1b[2:3],
{4},,,2bx,
{4}2bxh[8:1],2h[8:1],3h[8:1]/4h[8:1],3h[8:1]/4h[8:1],
{4}4h[8:1]/5h[8:1],4h[8:1]/5h[8:1],C1f/B3/A3/B4/B5/B6/A6,,
{4}7h[8:1]/8h[8:1],1h[8:1]/8h[8:1],1h[8:1]/2h[8:1],1/2<5[2:1]*qq5[2:1],
{1},
{16}6,5,6,5,7,4,7,4,6b,5b,7b,4b,8b,,,,
{16}3,4,3,4,2>5[8:1],1,2p5[8:1],1,2,,,,,,,,
{8}7/8,7/8,1,2,3/5,4/6,7/5p2[16:7]*pp1[16:7],,
{16},,,,,,,,,,8bx,1bx,8bx<4[8:1]*>4[8:1],,,,
{16}8x,,,,1x/7x,,,2,2/5,,3,,4/7,,8,,
{8}1p5[8:1]/7q3[8:1],2/6,1/7,,2bx/6bx,,1/2,3/8,
{16}7/4-8[8:1],,,,4/5,,,,7h[16:3],,,8,7,,1/6,,
{8}2/5-1[8:1],3/4,5/2q6[8:1],,2/6,8b,8bp3b[8:1]*q5b[8:1],,
{16}8x,,,,1x/7x,,,2,2/4,,3,,4/5,,6pp4[8:3],,
{8}3qq5[4:1],6,3,,E5f,,7/8,1/6,
{16}2-5[8:1]/5-8[8:1],,,,2/5,,,,8xh[8:1],,,1,8v6b[8:1]-4[8:1]>1[8:1]*v6b[8:1]-4[8:1]-1[8:1],,2/7,,
{8},,,,3/7,2b/8b,2b/8b,,
{4}2/1-6[8:1],1h[8:1],7/8-3[8:1],8h[8:1],
{4}2/1-5[8:1],1h[8:1],8/7-3[8:1],7h[8:1],
{24}1bx,2x,3x,8bx,7x,6x,2bx,3x,4x,7bx,6x,5x,1bx,2x,3x,8bx,7x,6x,2bx,3x,4x,7bx,6x,5x,
{24}1bx,2bx,3bx,8bx,7bx,6bx,2bx,3bx,4bx,7bx,6bx,5bx,1bx,2bx,3bx,8bx,7bx,6bx,C1f/5bx,,,,,,
{4}7x/8x-3[8:1],8h[8:1],2/1-6[8:1],1h[8:1],
{4}8/7-3b[8:1],7h[8:1],1/2-6b[8:1],2h[8:1],
{4}8/7-4b[8:1],7h[8:1],2/1-5b[8:1],1h[8:1],
{8}7/8>3[8:1],,8<5[8:1],,4/8,3,2x-5b[8:1]/4x-8b[8:1],,
{384}2b/4b>5[8:13]p4[8:13],C1f,,,,,,,,,,,,,,,,,,,,,,,,,,,,,,,,,,,,,,,,,,,,,,,,,,,,,,,,,,,,,,,,,,,,,,,,,,,,,,,,,,,,,,,,,,,,,,,,,,,,,,,,,,,,,,,,,,,,,,,,,,,,,,,,,,,,,,,,,,,,,,,,,,,,,,,,,,,,,,,,,,,,,,,,,,,,,,,,,,,,,,,,,,,,,,,,,,,,,,,,,,,,,,,,,,,,,,,,,,,,,,,,,,,,,,,,,,,,,,,,,,,,,,,,,,,,,,,,,,,,,,,,,,,,,,,,,,,,,,,,,,,,,,,,,,,,,,,,,,,,,,,,,,,,,,,,,,,,,,,,,,,,,,,,,,,,,,,,,,,,,,,,,,,,,,,,,,,,,,,,,,,,,,,,,,,,,,,,,,,,,,,
{1},
{1},
{1},
(153){2}2h[2:1],3h[384:191],
(130){2}4h[384:191],(120)5h[2:1],
(110){4}6h[384:191],,(95)7,7,
(90){4}8,8-4b[1:1],8h[1:1],,
{1},
{1},
{1},
E
